Банши / Banshee / Сезон: 4 / Серии: 1-8 из 8 (Грег Яйтанс, Оле Кристиан Мадсен) [2016, боевик, триллер, драма, криминал, детектив, HDTVRip] MVO (Amedia) + Original + Subs (Rus)

Страницы :  1, 2  След.

Ответить на тему
 

lector_87 ®

Стаж: 3 года 7 месяцев

Сообщений: 391

Симпатии: 348

-Банши | Banshee-- • Год выпуска: 2016
• Страна: США
• Жанр: боевик, триллер, драма, криминал, детектив
• Продолжительность: ~ 00:55:00-• Перевод: Профессиональный (многоголосый закадровый) | Amedia-• Режиссёр: Грег Яйтанс, Оле Кристиан Мадсен, С.Дж. Кларксон-• В ролях: Триесте Келли Данн, Мэтт Сервитто, Энтони Старр, Рас Блэквелл, Ивана Миличевич, Райанн Шэйн, Фрэнки Фэйзон, Деметриус Гросс, Мэттью Ройч, Хун Ли, Ульрих Томсен, Кристофер Козорт, Дерек Сесил, Стив Култер, Джозеф Майсснер и др.-• Описание: Лжешерифа Лукаса Худа и его бригаду ждут новые испытания и передряги, которые опять потребуют балансировать по обе стороны закона. А еще в последнем сезоне появляется харизматичный персонаж – сексуальная и поразительно безрассудная криминалистка ФБР, не без греха. Итак, Худ, Кэрри, Проктор и банда возвращаются, чтобы вступить в кульминационную гонку под названием “все или ничего”.- --• Качество: HDTVRip
• Формат: AVI
• Видео: XviD, 720x400 (16:9), 23,976 fps, ~1500 kbps
• Аудио #1: MP3, 48 kHz, 2 ch, 128 kbps, CBR - Rus
• Аудио #2: MP3, 48 kHz, 2 ch, 128 kbps, CBR - Eng
• Субтитры: русские-

✘ Релиз ✘

синхронизация звука и субтитров - qqss44
Субтитры: Амедиа

✘ MediaInfo ✘

Общее
Формат                                   : AVI
Формат/Информация                        : Audio Video Interleave
Размер файла                             : 700 Мбайт
Продолжительность                        : 57 м.
Общий поток                              : 1700 Кбит/сек
Программа кодирования                    : VirtualDubMod 1.5.10.3 | www.virtualdub-fr.org || (build 2550/release)
Библиотека кодирования                   : VirtualDubMod build 2550/release
Видео
Идентификатор                            : 0
Формат                                   : MPEG-4 Visual
Профиль формата                          : Advanced [email protected]
Параметр BVOP формата                    : 2
Параметр QPel формата                    : Нет
Параметр GMC формата                     : Без точки перехода
Параметр матрицы формата                 : Default (MPEG)
Идентификатор кодека                     : XVID
Идентификатор кодека/Подсказка           : XviD
Продолжительность                        : 57 м.
Битрейт                                  : 1430 Кбит/сек
Ширина                                   : 720 пикселей
Высота                                   : 400 пикселей
Соотношение сторон                       : 16:9
Частота кадров                           : 23,976 кадра/сек
Цветовое пространство                    : YUV
Субдискретизация насыщенности            : 4:2:0
Битовая глубина                          : 8 бит
Тип развёртки                            : Прогрессивная
Метод сжатия                             : С потерями
Бит/(Пиксели*Кадры)                      : 0.207
Размер потока                            : 589 Мбайт (84%)
Библиотека кодирования                   : XviD 73
Аудио #1
Идентификатор                            : 1
Формат                                   : MPEG Audio
Версия формата                           : Version 1
Профиль формата                          : Layer 3
Режим                                    : Joint stereo
Расширение режима                        : MS Stereo
Идентификатор кодека                     : 55
Идентификатор кодека/Подсказка           : MP3
Продолжительность                        : 57 м.
Вид битрейта                             : Постоянный
Битрейт                                  : 128 Кбит/сек
Каналы                                   : 2 канала
Частота                                  : 48,0 КГц
Метод сжатия                             : С потерями
Размер потока                            : 52,7 Мбайт (8%)
Выравнивание                             : Соединение по промежуткам
Продолжительность промежутка             : 42  мс. (1,00 видеокадр)
Время предзагрузки промежутка            : 504  мс.
Аудио #2
Идентификатор                            : 2
Формат                                   : MPEG Audio
Версия формата                           : Version 1
Профиль формата                          : Layer 3
Режим                                    : Joint stereo
Расширение режима                        : MS Stereo
Идентификатор кодека                     : 55
Идентификатор кодека/Подсказка           : MP3
Продолжительность                        : 57 м.
Вид битрейта                             : Постоянный
Битрейт                                  : 128 Кбит/сек
Каналы                                   : 2 канала
Частота                                  : 48,0 КГц
Метод сжатия                             : С потерями
Размер потока                            : 52,7 Мбайт (8%)
Выравнивание                             : Соединение по промежуткам
Продолжительность промежутка             : 42  мс. (1,00 видеокадр)
Время предзагрузки промежутка            : 504  мс.

✘ Скриншоты ✘

✘ Раздача ведется путем добавления новых серий ✘

Когда раздача ведётся путём добавления новых серий, при каждом добавлении создётся новый торрент. Чтобы начать докачку новой серии, пользователям необходимо сделать следующее:
(1) остановить скачивание,
(2) удалить старый торрент у себя из клиента (старые серии удалять не надо),
(3) скачать новый торрент и запустить его у себя в клиенте вместо старого, при этом указать клиенту путь в старую папку, куда и должно происходить скачивание новых серий.
Ваш клиент при этом должен произвести хеширование (проверку) старой папки (если не производит сам - помогите ему сделать это), и будет докачивать только те серии, которых у вас ещё нет. Старые серии при этом не удаляются, а продолжают раздаваться!
Eсли вы уже удалили старые серии, то предотвратить повторную закачку старых серий можно, отжав галочку в соответсвующих местах при запуске нового торрента. По возможности, желательно не удалять старые серии как можно дольше, чтобы релизёр не столько продолжал раздавать старые серии, а смог сконцентрироваться на новых.
-


Последний раз редактировалось: lector_87 (2016-05-21 19:05), всего редактировалось 7 раз(а)

Создавать темы 03-Апр-2016 03:31

[Профиль]  [ЛС] 

Manson

Стаж: 7 лет 3 месяца

Сообщений: 92

Симпатии: 19

Вот это поворот! Как же я ждал его! спасибо

Создавать темы 03-Апр-2016 05:29

[Профиль]  [ЛС] 

Alishe

Стаж: 2 года 5 месяцев

Сообщений: 9

cgfcb,f

Создавать темы 05-Апр-2016 20:25

[Профиль]  [ЛС] 

Alishe

Стаж: 2 года 5 месяцев

Сообщений: 9

спасибо

Создавать темы 05-Апр-2016 20:26

[Профиль]  [ЛС] 

Alishe

Стаж: 2 года 5 месяцев

Сообщений: 9

Кагда будет 2- скпия?

Создавать темы 09-Апр-2016 22:25

[Профиль]  [ЛС] 

Alishe

Стаж: 2 года 5 месяцев

Сообщений: 9

серия

Создавать темы 09-Апр-2016 22:26

[Профиль]  [ЛС] 

lector_87 ®

Стаж: 3 года 7 месяцев

Сообщений: 391

Симпатии: 348

2 серия добавлена

Создавать темы 10-Апр-2016 09:23

[Профиль]  [ЛС] 

Alishe

Стаж: 2 года 5 месяцев

Сообщений: 9

личер што это?

Создавать темы 12-Апр-2016 22:49

[Профиль]  [ЛС] 

Alishe

Стаж: 2 года 5 месяцев

Сообщений: 9

Сидов што это обеснити пожалуста?

Создавать темы 12-Апр-2016 22:50

[Профиль]  [ЛС] 

Alishe

Стаж: 2 года 5 месяцев

Сообщений: 9

чгота не скачеват

Создавать темы 12-Апр-2016 22:51

[Профиль]  [ЛС] 

art-udav

Стаж: 6 лет 4 месяца

Сообщений: 37

Вообще непонятно,четыре сидера и ничерта скорости.

Создавать темы 19-Апр-2016 12:35

[Профиль]  [ЛС] 

Manson

Стаж: 7 лет 3 месяца

Сообщений: 92

Симпатии: 19

lector_87, раздавай уже, народ ждет...

Создавать темы 20-Апр-2016 20:47

[Профиль]  [ЛС] 

Alishe

Стаж: 2 года 5 месяцев

Сообщений: 9

не х... не скачевает!!!

Создавать темы 21-Апр-2016 22:34

[Профиль]  [ЛС] 

Alishe

Стаж: 2 года 5 месяцев

Сообщений: 9

почему???

Создавать темы 21-Апр-2016 22:35

[Профиль]  [ЛС] 

Manson

Стаж: 7 лет 3 месяца

Сообщений: 92

Симпатии: 19

Потому что сид забил на эту раздачу и раздает другие...

Создавать темы 22-Апр-2016 07:55

[Профиль]  [ЛС] 
Показать сообщения:    
Ответить на тему

Текущее время: 22-Сен 15:01

Часовой пояс: UTC + 5



Вы не можете начинать темы
Вы не можете отвечать на сообщения
Вы не можете редактировать свои сообщения
Вы не можете удалять свои сообщения
Вы не можете голосовать в опросах
Вы не можете прикреплять файлы к сообщениям
Вы не можете скачивать файлы