Три девятки / Triple 9 (Джон Хиллкоут) [2016, США, криминал, драма, триллер, WEBRip-AVC] Dub (Чистый звук)

Ответить на тему
 

lotto ®

Стаж: 7 лет 11 месяцев

Сообщений: 221

Симпатии: 409

Три девятки / Triple 9
«Законы улицы не делятся на черные и белые»
-- Страна: США
Жанр: криминал, драма, триллер
Год выпуска: 2016
Продолжительность: 01:50:36
Перевод: Профессиональный (дублированный) Чистый звук
Cубтитры: нет--Режиссер: Джон Хиллкоут
В ролях: Аарон Пол, Кейт Уинслет, Норман Ридус, Тереза Палмер, Галь Гадот, Чиветель Эджиофор, Вуди Харрельсон, Кейси Аффлек, Энтони Маки, Клифтон Коллинз мл.--Описание: Банда преступников и коррумпированных копов планирует убить полицейского, чтобы провернуть ограбление на другом конце города.-- --Качество видео: WEBRip-AVC
Формат видео: MKV
Видео: H264 1024x428 24fps 1 750 Kbps
Аудио: AC3 48000Hz stereo 192kbps (русский, дублированный)

MediaInfo

General
Complete name : 3.Nine.2O15.D.WEBRip.(AVC).mkv
Format : Matroska
Format version : Version 4 / Version 2
File size : 1.50 GiB
Duration : 1h 50mn
Overall bit rate : 1 944 Kbps
Encoded date : UTC 2016-04-02 15:24:28 / UTC 2016-04-02 13:36:48
Writing application : mkvmerge v8.3.0 ('Over the Horizon') 64bit
Writing library : libebml v1.3.1 + libmatroska v1.4.2 / Lavf56.22.100
Video
ID : 1
Format : AVC
Format/Info : Advanced Video Codec
Format profile : [email protected]
Format settings, CABAC : Yes
Format settings, ReFrames : 10 frames
Codec ID : V_MPEG4/ISO/AVC
Duration : 1h 50mn
Bit rate : 1 750 Kbps
Width : 1 024 pixels
Height : 428 pixels
Display aspect ratio : 2.40:1
Frame rate mode : Constant
Frame rate : 24.000 fps
Standard : Component
Color space : YUV
Chroma subsampling : 4:2:0
Bit depth : 8 bits
Scan type : Progressive
Bits/(Pixel*Frame) : 0.166
Stream size : 1.32 GiB (88%)
Writing library : x264 core 144 r2525
Encoding settings : cabac=1 / ref=10 / deblock=1:-2:-2 / analyse=0x3:0x112 / me=umh / subme=9 / psy=1 / psy_rd=1.00:1.00 / mixed_ref=0 / me_range=16 / chroma_me=1 / trellis=1 / 8x8dct=1 / cqm=0 / deadzone=21,11 / fast_pskip=1 / chroma_qp_offset=-4 / threads=6 / lookahead_threads=1 / sliced_threads=0 / nr=0 / decimate=1 / interlaced=0 / bluray_compat=0 / constrained_intra=0 / bframes=10 / b_pyramid=2 / b_adapt=2 / b_bias=6 / direct=3 / weightb=0 / open_gop=0 / weightp=1 / keyint=240 / keyint_min=24 / scenecut=49 / intra_refresh=0 / rc_lookahead=40 / rc=2pass / mbtree=1 / bitrate=1750 / ratetol=1.0 / qcomp=0.80 / qpmin=4 / qpmax=69 / qpstep=10 / cplxblur=20.0 / qblur=0.5 / vbv_maxrate=4200 / vbv_bufsize=3500 / nal_hrd=none / filler=0 / ip_ratio=1.00 / aq=3:1.00
Default : Yes
Forced : No
Color range : Limited
Statistics Tags Issue : mkvmerge v8.3.0 ('Over the Horizon') 64bit 2016-04-02 15:24:28 / mkvmerge v8.3.0 ('Over the Horizon') 64bit 2016-04-02 15:24:28 / UTC 2016-04-02 13:36:48
FromStats_BitRate : 1750020
FromStats_Duration : 01:50:35.959000000
FromStats_FrameCount : 159263
FromStats_StreamSize : 1451632752
Audio
ID : 2
Format : AC-3
Format/Info : Audio Coding 3
Mode extension : CM (complete main)
Format settings, Endianness : Big
Codec ID : A_AC3
Duration : 1h 50mn
Bit rate mode : Constant
Bit rate : 192 Kbps
Channel(s) : 2 channels
Channel positions : Front: L R
Sampling rate : 48.0 KHz
Frame rate : 31.250 fps (1536 spf)
Compression mode : Lossy
Delay relative to video : -83ms
Stream size : 152 MiB (10%)
Language : Russian
Default : Yes
Forced : No
Statistics Tags Issue : mkvmerge v8.3.0 ('Over the Horizon') 64bit 2016-04-02 15:24:28 / mkvmerge v8.3.0 ('Over the Horizon') 64bit 2016-04-02 15:24:28 / UTC 2016-04-02 13:36:48
FromStats_BitRate : 192000
FromStats_Duration : 01:50:35.936000000
FromStats_FrameCount : 207373
FromStats_StreamSize : 159262464

Скриншот c названием фильма

Скриншоты






Последний раз редактировалось: lotto (2016-04-03 19:04), всего редактировалось 1 раз

Создавать темы 03-Апр-2016 10:50

[Профиль]  [ЛС] 
Показать сообщения:    
Ответить на тему

Текущее время: 12-Дек 04:02

Часовой пояс: UTC + 5



Вы не можете начинать темы
Вы не можете отвечать на сообщения
Вы не можете редактировать свои сообщения
Вы не можете удалять свои сообщения
Вы не можете голосовать в опросах
Вы не можете прикреплять файлы к сообщениям
Вы не можете скачивать файлы