Убийца / Sicario (2015) BDRip 1080p | (Dub : iTunes) (Sub Rus + Original Eng)

Ответить на тему
 

trombatore ®

Стаж: 1 год 11 месяцев

Сообщений: 11

Симпатии: 11

Убийца / Sicario (2015) BDRip 1080p | iTunes -Страна: США
Студия: Black Label Media, Lionsgate, Thunder Road
Продолжительность: 02:01:20
Перевод: Дублированный - iTunes
Название: Убийца
Оригинальное название: Sicario
Год выхода: 2015
Жанр: Боевик, триллер, драма, криминал, детектив
Режиссер: Дени Вильнёв
В ролях: Эмили Блант, Бенисио Дель Торо, Джош Бролин, Виктор Гарбер, Джон Бернтал, Дэниэл Калуя, Джеффри Донован, Рауль Трухильо, Хулио Седильо, Хэнк Роджерсон, Бернардо Галлегос, Максимилиано Эрнандес, Кевин Уиггинс, Эдгар Арреола, Ким Нив, Хесус Неварес-Кастилло, Дилан Кенин, Джон Трехо, Марти Линдси, Алекс Найт
О фильме:
На американо-мексиканской границе женщина-полицейский сопровождает двух рейнджеров, которые преследуют наркобарона. Она не подозревает, что по ту сторону границы есть тайное место, где не действуют никакие законы и царят насилие и разврат.
IMDB рейтинг: 7.7/10
КиноПоиск рейтинг: 7.1/10

Файл
Формат видео: MKV
Кодек: MPEG4 Video (H264)
Качество: BDRip 1080p
Видео: 1920x800, 7870 Kbps, 23.976 fps
Звук:
Аудио #1: AC-3, 6 ch, 384 kbps (Rus)
Аудио #3: AC-3, 6 ch, 640 kbps (Eng)
Субтитры: Русские (форс, полные) - Матвеев, voronine, Английские

Mediainfo

General
Unique ID : 227096581110357913279133229344959465359 (0xAAD935E8C1CC314594F034FCFF93878F)
Complete name : D:\Movies\Sicario.2015.BDRip.1080p.mkv
Format : Matroska
Format version : Version 2
File size : 7.54 GiB
Duration : 2h 1mn
Overall bit rate : 8 896 Kbps
Movie name : -=WALLEDOL=-
Encoded date : UTC 2016-03-15 23:45:58
Writing application : mkvmerge v4.0.0 ('The Stars were mine') сборка от Jun 6 2010 16:18:42
Writing library : libebml v1.0.0 + libmatroska v1.0.0
Video
ID : 1
Format : AVC
Format/Info : Advanced Video Codec
Format profile : [email protected]
Format settings, CABAC : Yes
Format settings, ReFrames : 5 frames
Codec ID : V_MPEG4/ISO/AVC
Duration : 2h 1mn
Bit rate : 7 870 Kbps
Width : 1 920 pixels
Height : 800 pixels
Display aspect ratio : 2.40:1
Frame rate mode : Constant
Frame rate : 23.976 fps
Color space : YUV
Chroma subsampling : 4:2:0
Bit depth : 8 bits
Scan type : Progressive
Bits/(Pixel*Frame) : 0.214
Stream size : 6.52 GiB (86%)
Title : Sicario.2015.BDRip.1080p
Writing library : x264 core 148 r2638 7599210
Encoding settings : cabac=1 / ref=5 / deblock=1:-3:-3 / analyse=0x3:0x133 / me=umh / subme=10 / psy=1 / psy_rd=1.00:0.10 / mixed_ref=1 / me_range=32 / chroma_me=1 / trellis=2 / 8x8dct=1 / cqm=0 / deadzone=21,11 / fast_pskip=0 / chroma_qp_offset=-3 / threads=6 / lookahead_threads=1 / sliced_threads=0 / nr=0 / decimate=1 / interlaced=0 / bluray_compat=0 / constrained_intra=0 / bframes=8 / b_pyramid=2 / b_adapt=2 / b_bias=0 / direct=3 / weightb=1 / open_gop=0 / weightp=2 / keyint=240 / keyint_min=23 / scenecut=40 / intra_refresh=0 / rc=2pass / mbtree=0 / bitrate=7870 / ratetol=1.0 / qcomp=0.60 / qpmin=0 / qpmax=69 / qpstep=4 / cplxblur=20.0 / qblur=0.5 / ip_ratio=1.40 / pb_ratio=1.30 / aq=2:0.90
Language : English
Default : No
Forced : No
Audio #1
ID : 2
Format : AC-3
Format/Info : Audio Coding 3
Mode extension : CM (complete main)
Format settings, Endianness : Big
Codec ID : A_AC3
Duration : 2h 1mn
Bit rate mode : Constant
Bit rate : 384 Kbps
Channel(s) : 6 channels
Channel positions : Front: L C R, Side: L R, LFE
Sampling rate : 48.0 KHz
Compression mode : Lossy
Stream size : 333 MiB (4%)
Title : DUB iTunes
Language : Russian
Default : Yes
Forced : Yes
Audio #2
ID : 3
Format : AC-3
Format/Info : Audio Coding 3
Mode extension : CM (complete main)
Format settings, Endianness : Big
Codec ID : A_AC3
Duration : 2h 1mn
Bit rate mode : Constant
Bit rate : 640 Kbps
Channel(s) : 6 channels
Channel positions : Front: L C R, Side: L R, LFE
Sampling rate : 48.0 KHz
Compression mode : Lossy
Stream size : 555 MiB (7%)
Language : English
Default : No
Forced : No
Text #1
ID : 4
Format : UTF-8
Codec ID : S_TEXT/UTF8
Codec ID/Info : UTF-8 Plain Text
Title : Forced (voronine)
Language : Russian
Default : Yes
Forced : Yes
Text #2
ID : 5
Format : UTF-8
Codec ID : S_TEXT/UTF8
Codec ID/Info : UTF-8 Plain Text
Title : Full (voronine)
Language : Russian
Default : No
Forced : No
Text #3
ID : 6
Format : UTF-8
Codec ID : S_TEXT/UTF8
Codec ID/Info : UTF-8 Plain Text
Title : Full (Матвеев)
Language : Russian
Default : No
Forced : No
Text #4
ID : 7
Format : UTF-8
Codec ID : S_TEXT/UTF8
Codec ID/Info : UTF-8 Plain Text
Language : English
Default : No
Forced : No
Menu
00:00:00.000 : en:Chapter 01
00:07:14.350 : en:Chapter 02
00:12:55.106 : en:Chapter 03
00:20:04.368 : en:Chapter 04
00:25:24.814 : en:Chapter 05
00:32:11.596 : en:Chapter 06
00:39:24.819 : en:Chapter 07
00:46:15.313 : en:Chapter 08
00:53:24.576 : en:Chapter 09
01:01:40.320 : en:Chapter 10
01:10:49.118 : en:Chapter 11
01:18:02.886 : en:Chapter 12
01:30:59.369 : en:Chapter 13
01:36:57.770 : en:Chapter 14
01:47:42.037 : en:Chapter 15
01:54:12.804 : en:Chapter 16
02:01:20.064 : en:Chapter 17

Скриншоты

Создавать темы 04-Апр-2016 04:45

[Профиль]  [ЛС] 

Топик был перенесен из форума HD-AVC в форум Зарубежное кино
kat222000

Создавать темы 04-Апр-2016 06:28

 
Показать сообщения:    
Ответить на тему

Текущее время: 24-Ноя 23:45

Часовой пояс: UTC + 5



Вы не можете начинать темы
Вы не можете отвечать на сообщения
Вы не можете редактировать свои сообщения
Вы не можете удалять свои сообщения
Вы не можете голосовать в опросах
Вы не можете прикреплять файлы к сообщениям
Вы не можете скачивать файлы