Физрук / Сезон: 3 / Серии: 1-21 из 21 (Антон Щукин, Антон Зайцев, Артем Логинов, Александр Дулерайн) [2016, Комедия, SATRip]

Страницы :  1, 2, 3  След.

Ответить на тему
 

Sunnat1999 ®

Стаж: 4 года 5 месяцев

Сообщений: 756

Симпатии: 416

ФизрукСезон: 3 / Серии: 1-21 из 21 --Год выпуска: 2015
Производство: Россия, ГудСториМедиа
Жанр: Комедия
Продолжительность: ~ 00:24:00 серия
Субтитры: нет--Режиссёр: Антон Щукин, Антон Зайцев, Артем Логинов, Александр Дулерайн--В ролях: Дмитрий Нагиев, Александр Гордон, Владимир Сычев, Полина Гренц, Екатерина Мельник, Дмитрий Власкин, Анастасия Панина, Владимир Жеребцов, Евгений Кулаков, Андрей Крыжний, Артур Сопельник, Виктория Клинкова, Даниил Вахрушев--Описание: Легендарный Фома возвращается и не собирается сдавать позиции. У других героев жизнь будет не менее насыщенной: верному товарищу физрука Психу предстоит пережить кризис среднего возраста и болезненный развод. Угловатый школьник Усач планирует сменить имидж, а бывшая девушка Фомы Татьяна попытается начать новую жизнь. В общем, скучать не придется-Доп. информация:
 
--Качество: SATRip
Формат: AVI
Видео кодек: XviD
Аудио кодек: MP3
Видео: XviD, ~ 1500 Кбит/с, 720x400
Аудио: MP3, 2 ch, 192 Кбит/с
--ВНИМАНИЕ! РАЗДАЧА ВЕДЁТСЯ ПУТЁМ ДОБАВЛЕНИЯ НОВЫХ СЕРИЙ!
ДОБАВЛЕНЫ 20-21 СЕРИИ, ПОЖАЛУЙСТА ОБНОВИТЕ ТОРРЕНТ!

Как обновить торрент

Когда раздача ведётся путём добавления новых серий, при каждом добавлении создётся новый торрент. Чтобы начать докачку новой серии, пользователям необходимо сделать следующее:
(1) остановить скачивание,
(2) удалить старый торрент у себя из клиента (старые серии удалять не надо),
(3) скачать новый торрент и запустить его у себя в клиенте вместо старого, при этом указать клиенту путь в старую папку, куда и должно происходить скачивание новых серий.
Ваш клиент при этом должен произвести хеширование (проверку) старой папки (если не производит сам - помогите ему сделать это), и будет докачивать только те серии, которых у вас ещё нет. Старые серии при этом не удаляются, а продолжают раздаваться!
Eсли вы уже удалили старые серии, то предотвратить повторную закачку старых серий можно, отжав галочку в соответсвующих местах при запуске нового торрента. По возможности, желательно не удалять старые серии как можно дольше, чтобы релизёр не столько продолжал раздавать старые серии, а смог сконцентрироваться на новых.

MI

General
Complete name : J:\Erkin\Физрук. Сезон 3. 2016 SATRip\Серия 01.avi
Format : AVI
Format/Info : Audio Video Interleave
File size : 282 MiB
Duration : 23mn 42s
Overall bit rate : 1 665 Kbps
Writing application : VirtualDubMod 1.5.10.3 (build 2550/release)
Writing library : VirtualDubMod build 2550/release
Video
ID : 0
Format : MPEG-4 Visual
Format profile : Advanced [email protected]
Format settings, BVOP : 1
Format settings, QPel : No
Format settings, GMC : No warppoints
Format settings, Matrix : Default (H.263)
Codec ID : XVID
Codec ID/Hint : XviD
Duration : 23mn 42s
Bit rate : 1 463 Kbps
Width : 720 pixels
Height : 400 pixels
Display aspect ratio : 16:9
Frame rate : 25.000 fps
Color space : YUV
Chroma subsampling : 4:2:0
Bit depth : 8 bits
Scan type : Progressive
Compression mode : Lossy
Bits/(Pixel*Frame) : 0.203
Stream size : 248 MiB (88%)
Writing library : XviD 67
Audio
ID : 1
Format : MPEG Audio
Format version : Version 1
Format profile : Layer 3
Mode : Joint stereo
Mode extension : MS Stereo
Codec ID : 55
Codec ID/Hint : MP3
Duration : 23mn 42s
Bit rate mode : Constant
Bit rate : 192 Kbps
Channel(s) : 2 channels
Sampling rate : 48.0 KHz
Compression mode : Lossy
Stream size : 32.5 MiB (12%)
Alignment : Split accross interleaves
Interleave, duration : 40 ms (1.00 video frame)
Interleave, preload duratio : 500 ms
Writing library : LAME3.99.5
Скриншоты:


Последний раз редактировалось: Sunnat1999 (2016-05-27 10:26), всего редактировалось 21 раз(а)

Создавать темы 04-Апр-2016 16:39

[Профиль]  [ЛС] 

Doker

Стаж: 1 год 8 месяцев

Сообщений: 3

Симпатии: 2

Автор молодец! Спасибо большое ждал с нетерпением)

Создавать темы 04-Апр-2016 16:52

[Профиль]  [ЛС] 

Вадим123

Стаж: 4 года 4 месяца

Сообщений: 117

Симпатии: 7

Sunnat1999, спасибо! А версию WEB-DLRip 720p не планируете? А то Кухня очень порадовала в таком качестве.

Создавать темы 04-Апр-2016 17:03

[Профиль]  [ЛС] 

Sunnat1999 ®

Стаж: 4 года 5 месяцев

Сообщений: 756

Симпатии: 416

971551Sunnat1999, спасибо! А версию WEB-DLRip 720p не планируете? А то Кухня очень порадовала в таком качестве.
Если будет в качестве, а я думаю, что будет. То выложу.

Создавать темы 04-Апр-2016 17:52

[Профиль]  [ЛС] 

Shaxzodbek

Стаж: 1 год 11 месяцев

Сообщений: 7

Симпатии: 47

ООО старый комедийный сериал *Физрук*
Спасибо за релиз.

Создавать темы 04-Апр-2016 20:47

[Профиль]  [ЛС] 

refantom

Стаж: 5 лет 6 месяцев

Сообщений: 195

Симпатии: 86

Спасибо! Наконец-то!

_________________
Подпись отключена за нарушение правил форума

Создавать темы 05-Апр-2016 14:08

[Профиль]  [ЛС] 

verte

Стаж: 4 года 5 месяцев

Сообщений: 3

Симпатии: 1

спасибооооооо

Создавать темы 05-Апр-2016 15:02

[Профиль]  [ЛС] 

Sunnat1999 ®

Стаж: 4 года 5 месяцев

Сообщений: 756

Симпатии: 416

Подождите скачивать, Сейчас перезалью!
Удивило, что размер 3 серии относительно мал. Проверил, действительно внезапно обрывается.
Сейчас залью с другого источника.

Создавать темы 05-Апр-2016 17:06

[Профиль]  [ЛС] 

Sunnat1999 ®

Стаж: 4 года 5 месяцев

Сообщений: 756

Симпатии: 416

А нет! С другого источника заканчивается также. Так что перезаливать не буду.
ДОБАВЛЕНА 3 СЕРИЯ, ОБНОВИТЕ ПОЖАЛУЙСТА ТОРРЕНТ!

Создавать темы 05-Апр-2016 17:14

[Профиль]  [ЛС] 

Sunnat1999 ®

Стаж: 4 года 5 месяцев

Сообщений: 756

Симпатии: 416

ДОБАВЛЕНА 6 СЕРИЯ, ПОЖАЛУЙСТА ОБНОВИТЕ ТОРРЕНТ!

Создавать темы 11-Апр-2016 17:46

[Профиль]  [ЛС] 

Sunnat1999 ®

Стаж: 4 года 5 месяцев

Сообщений: 756

Симпатии: 416

ДОБАВЛЕНА 7 СЕРИЯ, ПОЖАЛУЙСТА ОБНОВИТЕ ТОРРЕНТ!

Создавать темы 12-Апр-2016 16:48

[Профиль]  [ЛС] 

Sunnat1999 ®

Стаж: 4 года 5 месяцев

Сообщений: 756

Симпатии: 416

ДОБАВЛЕНА 8 СЕРИЯ, ПОЖАЛУЙСТА ОБНОВИТЕ ТОРРЕНТ!

Создавать темы 13-Апр-2016 16:25

[Профиль]  [ЛС] 

Sunnat1999 ®

Стаж: 4 года 5 месяцев

Сообщений: 756

Симпатии: 416

ДОБАВЛЕНА 9 СЕРИЯ, ПОЖАЛУЙСТА ОБНОВИТЕ ТОРРЕНТ!

Создавать темы 14-Апр-2016 17:05

[Профиль]  [ЛС] 

Sunnat1999 ®

Стаж: 4 года 5 месяцев

Сообщений: 756

Симпатии: 416

ДОБАВЛЕНА 10 СЕРИЯ, ПОЖАЛУЙСТА ОБНОВИТЕ ТОРРЕНТ!

Создавать темы 19-Апр-2016 06:43

[Профиль]  [ЛС] 

Sunnat1999 ®

Стаж: 4 года 5 месяцев

Сообщений: 756

Симпатии: 416

ДОБАВЛЕНА 11 СЕРИЯ, ПОЖАЛУЙСТА ОБНОВИТЕ ТОРРЕНТ!

Создавать темы 19-Апр-2016 17:38

[Профиль]  [ЛС] 
Показать сообщения:    
Ответить на тему

Текущее время: 19-Авг 08:42

Часовой пояс: UTC + 5



Вы не можете начинать темы
Вы не можете отвечать на сообщения
Вы не можете редактировать свои сообщения
Вы не можете удалять свои сообщения
Вы не можете голосовать в опросах
Вы не можете прикреплять файлы к сообщениям
Вы не можете скачивать файлы