5-я волна / The 5th Wave (Дж. Блэйксон) [2016, США, фантастика, боевик, триллер, приключения, WEB-DLRip] Dub (iTunes)

Ответить на тему
 

lotto ®

Стаж: 7 лет 9 месяцев

Сообщений: 221

Симпатии: 409

5-я волна / The 5th Wave
«We Fight Back»
-- Страна: США
Жанр: фантастика, боевик, триллер, приключения
Год выпуска: 2016
Продолжительность: 01:52:22
Перевод: Профессиональный (дублированный) iTunes
Cубтитры: нет--Режиссер: Дж. Блэйксон
В ролях: Хлоя Грейс Морец, Ник Дж. Робинсон, Рон Ливингстон, Мэгги Сифф, Алекс Роу, Мария Белло, Майка Монро, Лив Шрайбер, Закари Артур, Тони Револори--Описание: Первая волна оставила за собой мглу. От второй успели убежать только самые везучие. Но едва ли можно назвать везучими тех, кто уцелел после третьей. А четвертая волна стерла все человеческие законы, взамен же установила свой, один-единственный: хочешь жить — не верь никому. И вот уже накатывает пятая волна…-- --Качество видео: WEB-DLRip
Формат видео: AVI
Видео: Xvid 720x304 23.976fps 1347kbps
Аудио: AC3 48000Hz 6ch 384kbps (русский, дублированный)

MediaInfo

General
Complete name : 5-y.VoLna.2O16.D.WEB-DLRip.14OOMB.avi
Format : AVI
Format/Info : Audio Video Interleave
File size : 1.37 GiB
Duration : 1h 52mn
Overall bit rate : 1 741 Kbps
Writing application : VirtualDubMod 1.5.10.2 (build 2540/release)
Writing library : VirtualDubMod build 2540/release
Video
ID : 0
Format : MPEG-4 Visual
Format profile : Advanced Simple@L5
Format settings, BVOP : 2
Format settings, QPel : No
Format settings, GMC : No warppoints
Format settings, Matrix : Default (MPEG)
Codec ID : XVID
Codec ID/Hint : XviD
Duration : 1h 52mn
Bit rate : 1 348 Kbps
Width : 720 pixels
Height : 304 pixels
Display aspect ratio : 2.35:1
Frame rate : 23.976 (24000/1001) fps
Color space : YUV
Chroma subsampling : 4:2:0
Bit depth : 8 bits
Scan type : Progressive
Compression mode : Lossy
Bits/(Pixel*Frame) : 0.257
Stream size : 1.06 GiB (77%)
Writing library : XviD 1.2.1 (UTC 2008-12-04)
Audio
ID : 1
Format : AC-3
Format/Info : Audio Coding 3
Mode extension : CM (complete main)
Format settings, Endianness : Big
Codec ID : 2000
Duration : 1h 52mn
Bit rate mode : Constant
Bit rate : 384 Kbps
Channel(s) : 6 channels
Channel positions : Front: L C R, Side: L R, LFE
Sampling rate : 48.0 KHz
Frame rate : 31.250 fps (1536 spf)
Compression mode : Lossy
Stream size : 309 MiB (22%)
Alignment : Split accross interleaves
Interleave, duration : 42 ms (1.00 video frame)
Interleave, preload duratio : 500 ms

Скриншот c названием фильма

Скриншоты




Создавать темы 05-Апр-2016 02:37

[Профиль]  [ЛС] 

Ru77ell

Стаж: 5 лет 4 месяца

Сообщений: 37

как фильм?

Создавать темы 25-Апр-2016 19:41

[Профиль]  [ЛС] 

shamshod7

Стаж: 1 год 10 месяцев

Сообщений: 56

Симпатии: 21

скрины пакажется скушный но филм проста шедевр

Создавать темы 25-Апр-2016 19:48

[Профиль]  [ЛС] 

Powered by GMC

Стаж: 1 год 11 месяцев

Сообщений: 202

Симпатии: 31

Дечонка Красивая! очень Мне она понравился! по Любил

Создавать темы 25-Апр-2016 21:55

[Профиль]  [ЛС] 

vadumb

Стаж: 7 лет 5 месяцев

Сообщений: 50

Симпатии: 3

Фильм унылое говно, высосанное из пальца. Все эффекты фильма - раскачивающиеся деревья и нарисованные инопланетяне. Игра актеров просто шлак, сюжет - кал, бюджет - 100$ за аренду любительской камеры

Создавать темы 26-Май-2016 17:56

[Профиль]  [ЛС] 

Galvanized

Стаж: 4 года 2 месяца

Сообщений: 1

унылое гамно!

Создавать темы 01-Июн-2016 21:25

[Профиль]  [ЛС] 

Dostonbek1990

Стаж: 1 год 7 месяцев

Сообщений: 2

Фильм норм вроде

Создавать темы 01-Июн-2016 23:34

[Профиль]  [ЛС] 
Показать сообщения:    
Ответить на тему

Текущее время: 19-Окт 03:19

Часовой пояс: UTC + 5



Вы не можете начинать темы
Вы не можете отвечать на сообщения
Вы не можете редактировать свои сообщения
Вы не можете удалять свои сообщения
Вы не можете голосовать в опросах
Вы не можете прикреплять файлы к сообщениям
Вы не можете скачивать файлы