Формула 1 Сезон 2016 года. Гонки. Этапы 1-21 из 21 [2016 г., Формула 1, WEB-DLRip]

Ответить на тему
 

beshka666 ®

Стаж: 2 года 1 месяц

Сообщений: 34

Симпатии: 20

Формула 1 - Сезон 2016 г
Вид спорта: Формула 1
Участники: Пилоты королевских гонок
Пилот Команда
Хамильтон Mercedes (Mercedes AMG Petronas F1)
Росберг Mercedes (Mercedes AMG Petronas F1)
Феттель Ferrari (Scuderia Ferrari)
Райконен Ferrari (Scuderia Ferrari)
Боттас Williams Mercedes (Williams Martini Racing)
Масса Williams Mercedes (Williams Martini Racing)
Риккярдо Red Bull Renault (Red Bull Racing TAG Heuer)
Квят Red Bull Renault (Red Bull Racing TAG Heuer) 1-4 этапы
                    Toro Rosso Ferrari (Scuderia Toro Rosso) 5-21 этапы
Хюлькенберг Force India Mercedes (Sahara Force India F1 Team)
Перес Force India Mercedes (Sahara Force India F1 Team)
Магнуссен Renault (Renault F1 Team)
Палмер Renault (Renault F1 Team)
Сайнс Toro Rosso Ferrari (Scuderia Toro Rosso)
Ферстаппен Toro Rosso Ferrari (Scuderia Toro Rosso) 1-4 этапы
                    [Red Bull Renault (Red Bull Racing TAG Heuer) 5-21 этапы
Наср Sauber Ferrari (Sauber F1 Team)
Эриксон Sauber Ferrari (Sauber F1 Team)
Алонсо McLaren Honda
Стофффель Вандорн McLaren Honda (заменял Алонсо на втором этапе)
Баттон McLaren Honda
Верляйн Manor Mercedes (Manor Racing Team)
Харрянто - Manor Mercedes (Manor Racing Team) 1-12 этапы
Окон - Manor Mercedes (Manor Racing Team) 13-21 этапы
Грожан Haas Ferrari (Haas F1 Team)
Гутьеррес Haas Ferrari (Haas F1 Team)
Язык комментариев: Русский
Комментатор: Алексей Попов
Каждый новый этап будет добавляться.

Этап 1 – Гран При Австралии

Дата гонки: 20,03,2016
Продолжительность: 2:30:39
Качество: WEB-DLRip
Формат: MPEG-4
Видео: MPEG4 Video (H264) 856x480 (137:77) 24fps 765kbps
Аудио: AAC 44100Hz stereo 125kbps

MI

General
Format : MPEG-4
Format profile : Base Media
Codec ID : isom
File size : 962 MiB
Duration : 2h 30mn
Overall bit rate mode : Variable
Overall bit rate : 893 Kbps
Video
ID : 1
Format : AVC
Format/Info : Advanced Video Codec
Format profile : [email protected]
Format settings, CABAC : No
Format settings, ReFrames : 1 frame
Codec ID : avc1
Codec ID/Info : Advanced Video Coding
Duration : 2h 30mn
Bit rate : 768 Kbps
Maximum bit rate : 4 807 Kbps
Width : 856 pixels
Height : 480 pixels
Display aspect ratio : 16:9
Original display aspect ratio : 16:9
Frame rate mode : Constant
Frame rate : 24.000 fps
Color space : YUV
Chroma subsampling : 4:2:0
Bit depth : 8 bits
Scan type : Progressive
Bits/(Pixel*Frame) : 0.078
Stream size : 825 MiB (86%)
Writing library : x264 core 116 r2019 9cc407d
Audio
ID : 2
Format : AAC
Format/Info : Advanced Audio Codec
Format profile : LC
Codec ID : 40
Duration : 2h 30mn
Bit rate mode : Variable
Bit rate : 126 Kbps
Maximum bit rate : 157 Kbps
Channel count : 2 channels
Channel positions : Front: L R
Sampling rate : 44.1 KHz
Compression mode : Lossy
Stream size : 135 MiB (14%)

Скриншоты



Этап 2 – Гран При Бахрейна

Дата гонки: 03,04,2016
Продолжительность: 2:10:21
Качество: WEB-DLRip
Формат: MPEG-4
Видео: MPEG4 Video (H264) 856x480 (137:77) 24fps 768kbps
Аудио: AAC 44100Hz stereo 125kbps

MI

General
Complete name : C:\Фильмы\Формула 1\2016\02.Bahrain.Gran.Prix.mp4
Format : MPEG-4
Format profile : Base Media
Codec ID : isom
File size : 836 MiB
Duration : 2h 10mn
Overall bit rate mode : Variable
Overall bit rate : 896 Kbps
Encoded date : UTC 2016-10-10 19:42:19
Tagged date : UTC 2016-10-10 19:42:19
Writing application : FormatFactory : www.pcfreetime.com
Video
ID : 1
Format : AVC
Format/Info : Advanced Video Codec
Format profile : [email protected]
Format settings, CABAC : No
Format settings, ReFrames : 1 frame
Codec ID : avc1
Codec ID/Info : Advanced Video Coding
Duration : 2h 10mn
Bit rate : 768 Kbps
Maximum bit rate : 2 675 Kbps
Width : 856 pixels
Height : 480 pixels
Display aspect ratio : 16:9
Original display aspect ratio : 16:9
Frame rate mode : Constant
Frame rate : 24.000 fps
Color space : YUV
Chroma subsampling : 4:2:0
Bit depth : 8 bits
Scan type : Progressive
Bits/(Pixel*Frame) : 0.078
Stream size : 716 MiB (86%)
Writing library : x264 core 116 r2019 9cc407d
Encoding settings : cabac=0 / ref=1 / deblock=1:0:0 / analyse=0x3:0x113 / me=hex / subme=7 / psy=1 / psy_rd=1.00:0.00 / mixed_ref=0 / me_range=16 / chroma_me=1 / trellis=1 / 8x8dct=1 / cqm=0 / deadzone=21,11 / fast_pskip=1 / chroma_qp_offset=-2 / threads=3 / sliced_threads=0 / nr=0 / decimate=1 / interlaced=0 / bluray_compat=0 / constrained_intra=0 / bframes=0 / weightp=2 / keyint=250 / keyint_min=24 / scenecut=40 / intra_refresh=0 / rc_lookahead=40 / rc=abr / mbtree=1 / bitrate=768 / ratetol=1.0 / qcomp=0.60 / qpmin=0 / qpmax=69 / qpstep=4 / ip_ratio=1.40 / aq=1:1.00
Encoded date : UTC 2016-10-10 19:42:19
Tagged date : UTC 2016-10-10 19:46:08
Audio
ID : 2
Format : AAC
Format/Info : Advanced Audio Codec
Format profile : LC
Codec ID : 40
Duration : 2h 10mn
Bit rate mode : Variable
Bit rate : 126 Kbps
Maximum bit rate : 155 Kbps
Channel count : 2 channels
Channel positions : Front: L R
Sampling rate : 44.1 KHz
Compression mode : Lossy
Stream size : 117 MiB (14%)
Encoded date : UTC 2016-10-10 19:45:09
Tagged date : UTC 2016-10-10 19:46:08

Скриншоты



Этап 3 – Гран При Китая

Дата гонки: 17,04,2016
Продолжительность: 2:19:47
Качество: WEB-DLRip
Формат: MPEG-4
Видео: MPEG4 Video (H264) 856x480 (137:77) 24fps 767kbps
Аудио: AAC 44100Hz stereo 125kbps

MI

General
Format : MPEG-4
Format profile : Base Media
Codec ID : isom
File size : 895 MiB
Duration : 2h 19mn
Overall bit rate mode : Variable
Overall bit rate : 896 Kbps
Video
ID : 1
Format : AVC
Format/Info : Advanced Video Codec
Format profile : [email protected]
Format settings, CABAC : No
Format settings, ReFrames : 1 frame
Codec ID : avc1
Codec ID/Info : Advanced Video Coding
Duration : 2h 19mn
Bit rate : 768 Kbps
Maximum bit rate : 3 094 Kbps
Width : 856 pixels
Height : 480 pixels
Display aspect ratio : 16:9
Original display aspect ratio : 16:9
Frame rate mode : Constant
Frame rate : 24.000 fps
Color space : YUV
Chroma subsampling : 4:2:0
Bit depth : 8 bits
Scan type : Progressive
Bits/(Pixel*Frame) : 0.078
Stream size : 767 MiB (86%)
Writing library : x264 core 116 r2019 9cc407d
Audio
ID : 2
Format : AAC
Format/Info : Advanced Audio Codec
Format profile : LC
Codec ID : 40
Duration : 2h 19mn
Bit rate mode : Variable
Bit rate : 126 Kbps
Maximum bit rate : 152 Kbps
Channel count : 2 channels
Channel positions : Front: L R
Sampling rate : 44.1 KHz
Compression mode : Lossy
Stream size : 126 MiB (14%)
Encoded date : UTC 2016-04-19 05:33:18
Tagged date : UTC 2016-04-19 05:33:36

Скриншоты



Этап 4 – Гран При России

Дата гонки: 01,05,2016
Продолжительность: 2:19:02
Качество: WEB-DLRip
Формат: MPEG-4
Видео: MPEG4 Video (H264) 856x480 (137:77) 24fps 771kbps
Аудио: AAC 44100Hz stereo 125kbps

MI

General
Format : MPEG-4
Format profile : Base Media
Codec ID : isom
File size : 895 MiB
Duration : 2h 19mn
Overall bit rate mode : Variable
Overall bit rate : 899 Kbps
Encoded date : UTC 2016-05-03 14:54:13
Tagged date : UTC 2016-05-03 14:54:13
Video
ID : 1
Format : AVC
Format/Info : Advanced Video Codec
Format profile : [email protected]
Format settings, CABAC : No
Format settings, ReFrames : 1 frame
Codec ID : avc1
Codec ID/Info : Advanced Video Coding
Duration : 2h 19mn
Bit rate : 768 Kbps
Maximum bit rate : 2 728 Kbps
Width : 856 pixels
Height : 480 pixels
Display aspect ratio : 16:9
Original display aspect ratio : 16:9
Frame rate mode : Constant
Frame rate : 24.000 fps
Color space : YUV
Chroma subsampling : 4:2:0
Bit depth : 8 bits
Scan type : Progressive
Bits/(Pixel*Frame) : 0.078
Stream size : 767 MiB (86%)
Writing library : x264 core 116 r2019 9cc407d
Audio
ID : 2
Format : AAC
Format/Info : Advanced Audio Codec
Format profile : LC
Codec ID : 40
Duration : 2h 19mn
Bit rate mode : Variable
Bit rate : 126 Kbps
Maximum bit rate : 162 Kbps
Channel count : 2 channels
Channel positions : Front: L R
Sampling rate : 44.1 KHz
Compression mode : Lossy
Stream size : 125 MiB (14%)

Скриншоты



Этап 5 – Гран При Испании

Дата гонки: 15,05,2016
Продолжительность: 2:18:00
Качество: WEB-DLRip
Формат: MPEG-4
Видео: MPEG4 Video (H264) 856x480 (137:77) 24fps 770kbps
Аудио: AAC 44100Hz stereo 125kbps

MI

General
Format : MPEG-4
Format profile : Base Media
Codec ID : isom
File size : 886 MiB
Duration : 2h 17mn
Overall bit rate mode : Variable
Overall bit rate : 898 Kbps
Encoded date : UTC 2016-05-17 11:05:49
Tagged date : UTC 2016-05-17 11:05:49
Writing application : FormatFactory : www.pcfreetime.com
Video
ID : 1
Format : AVC
Format/Info : Advanced Video Codec
Format profile : [email protected]
Format settings, CABAC : No
Format settings, ReFrames : 1 frame
Codec ID : avc1
Codec ID/Info : Advanced Video Coding
Duration : 2h 17mn
Bit rate : 768 Kbps
Maximum bit rate : 3 608 Kbps
Width : 856 pixels
Height : 480 pixels
Display aspect ratio : 16:9
Original display aspect ratio : 16:9
Frame rate mode : Constant
Frame rate : 24.000 fps
Color space : YUV
Chroma subsampling : 4:2:0
Bit depth : 8 bits
Scan type : Progressive
Bits/(Pixel*Frame) : 0.078
Stream size : 760 MiB (86%)
Writing library : x264 core 116 r2019 9cc407d
Audio
ID : 2
Format : AAC
Format/Info : Advanced Audio Codec
Format profile : LC
Codec ID : 40
Duration : 2h 17mn
Bit rate mode : Variable
Bit rate : 126 Kbps
Maximum bit rate : 153 Kbps
Channel count : 2 channels
Channel positions : Front: L R
Sampling rate : 44.1 KHz
Compression mode : Lossy
Stream size : 124 MiB (14%)

Скриншоты



Этап 6 – Гран При Монако

Дата гонки: 29,05,2016
Продолжительность: 2:26:29
Качество: WEB-DLRip
Формат: MPEG-4
Видео: MPEG4 Video (H264) 856x480 (137:77) 24fps 770kbps
Аудио: AAC 44100Hz stereo 125kbps

MI

General
Format : MPEG-4
Format profile : Base Media
Codec ID : isom
File size : 941 MiB
Duration : 2h 26mn
Overall bit rate mode : Variable
Overall bit rate : 898 Kbps
Video
ID : 1
Format : AVC
Format/Info : Advanced Video Codec
Format profile : [email protected]
Format settings, CABAC : No
Format settings, ReFrames : 1 frame
Codec ID : avc1
Codec ID/Info : Advanced Video Coding
Duration : 2h 26mn
Bit rate : 768 Kbps
Maximum bit rate : 2 622 Kbps
Width : 856 pixels
Height : 480 pixels
Display aspect ratio : 16:9
Original display aspect ratio : 16:9
Frame rate mode : Constant
Frame rate : 24.000 fps
Color space : YUV
Chroma subsampling : 4:2:0
Bit depth : 8 bits
Scan type : Progressive
Bits/(Pixel*Frame) : 0.078
Stream size : 807 MiB (86%)
Writing library : x264 core 116 r2019 9cc407d
Audio
ID : 2
Format : AAC
Format/Info : Advanced Audio Codec
Format profile : LC
Codec ID : 40
Duration : 2h 26mn
Bit rate mode : Variable
Bit rate : 126 Kbps
Maximum bit rate : 156 Kbps
Channel count : 2 channels
Channel positions : Front: L R
Sampling rate : 44.1 KHz
Compression mode : Lossy
Stream size : 132 MiB (14%)

Скриншоты




Этап 7 – Гран При Канады

Дата гонки: 12,06,2016
Продолжительность: 2:03:26
Качество: WEB-DLRip
Формат: MPEG-4
Видео: MPEG4 Video (H264) 856x480 (137:77) 24fps 770kbps
Аудио: AAC 44100Hz stereo 125kbps

MI

General
Format : MPEG-4
Format profile : Base Media
Codec ID : isom
File size : 794 MiB
Duration : 2h 3mn
Overall bit rate mode : Variable
Overall bit rate : 899 Kbps
Video
ID : 1
Format : AVC
Format/Info : Advanced Video Codec
Format profile : [email protected]
Format settings, CABAC : No
Format settings, ReFrames : 1 frame
Codec ID : avc1
Codec ID/Info : Advanced Video Coding
Duration : 2h 3mn
Bit rate : 768 Kbps
Maximum bit rate : 2 418 Kbps
Width : 856 pixels
Height : 480 pixels
Display aspect ratio : 16:9
Original display aspect ratio : 16:9
Frame rate mode : Constant
Frame rate : 24.000 fps
Color space : YUV
Chroma subsampling : 4:2:0
Bit depth : 8 bits
Scan type : Progressive
Bits/(Pixel*Frame) : 0.078
Stream size : 681 MiB (86%)
Audio
ID : 2
Format : AAC
Format/Info : Advanced Audio Codec
Format profile : LC
Codec ID : 40
Duration : 2h 3mn
Bit rate mode : Variable
Bit rate : 126 Kbps
Maximum bit rate : 159 Kbps
Channel count : 2 channels
Channel positions : Front: L R
Sampling rate : 44.1 KHz
Compression mode : Lossy
Stream size : 111 MiB (14%)

Скриншоты



Этап 8 – Гран При Европы - Баку

Дата гонки: 19,06,2016
Продолжительность: 2:17:00
Качество: WEB-DLRip
Формат: MPEG-4
Видео: MPEG4 Video (H264) 856x480 (137:77) 24fps 770kbps
Аудио: AAC 44100Hz stereo 125kbps

MI

General
Format : MPEG-4
Format profile : Base Media
Codec ID : isom
File size : 878 MiB
Duration : 2h 16mn
Overall bit rate mode : Variable
Overall bit rate : 896 Kbps
Encoded date : UTC 2016-06-21 06:37:23
Tagged date : UTC 2016-06-21 06:37:23
Writing application : FormatFactory : www.pcfreetime.com
Video
ID : 1
Format : AVC
Format/Info : Advanced Video Codec
Format profile : [email protected]
Format settings, CABAC : No
Format settings, ReFrames : 1 frame
Codec ID : avc1
Codec ID/Info : Advanced Video Coding
Duration : 2h 16mn
Bit rate : 768 Kbps
Maximum bit rate : 2 169 Kbps
Width : 856 pixels
Height : 480 pixels
Display aspect ratio : 16:9
Original display aspect ratio : 16:9
Frame rate mode : Constant
Frame rate : 24.000 fps
Color space : YUV
Chroma subsampling : 4:2:0
Bit depth : 8 bits
Scan type : Progressive
Bits/(Pixel*Frame) : 0.078
Stream size : 753 MiB (86%)
Writing library : x264 core 116 r2019 9cc407d
Audio
ID : 2
Format : AAC
Format/Info : Advanced Audio Codec
Format profile : LC
Codec ID : 40
Duration : 2h 16mn
Bit rate mode : Variable
Bit rate : 126 Kbps
Maximum bit rate : 167 Kbps
Channel count : 2 channels
Channel positions : Front: L R
Sampling rate : 44.1 KHz
Compression mode : Lossy
Stream size : 123 MiB (14%)

Скриншоты



Этап 9 – Гран При Австрии

Дата гонки: 03,07,2016
Продолжительность: 2:11:22
Качество: WEB-DLRip
Формат: MPEG-4
Видео: MPEG4 Video (H264) 856x480 (137:77) 24fps 770kbps
Аудио: AAC 44100Hz stereo 125kbps

MI

General
Format : MPEG-4
Format profile : Base Media
Codec ID : isom
File size : 844 MiB
Duration : 2h 11mn
Overall bit rate mode : Variable
Overall bit rate : 898 Kbps
Encoded date : UTC 2016-07-06 15:03:26
Tagged date : UTC 2016-07-06 15:03:26
Video
ID : 1
Format : AVC
Format/Info : Advanced Video Codec
Format profile : [email protected]
Format settings, CABAC : No
Format settings, ReFrames : 1 frame
Codec ID : avc1
Codec ID/Info : Advanced Video Coding
Duration : 2h 11mn
Bit rate : 768 Kbps
Maximum bit rate : 3 114 Kbps
Width : 856 pixels
Height : 480 pixels
Display aspect ratio : 16:9
Original display aspect ratio : 16:9
Frame rate mode : Constant
Frame rate : 24.000 fps
Color space : YUV
Chroma subsampling : 4:2:0
Bit depth : 8 bits
Scan type : Progressive
Bits/(Pixel*Frame) : 0.078
Stream size : 724 MiB (86%)
Writing library : x264 core 116 r2019 9cc407d
Encoded date : UTC 2016-07-06 15:03:26
Tagged date : UTC 2016-07-06 15:05:31
Audio
ID : 2
Format : AAC
Format/Info : Advanced Audio Codec
Format profile : LC
Codec ID : 40
Duration : 2h 11mn
Bit rate mode : Variable
Bit rate : 126 Kbps
Maximum bit rate : 162 Kbps
Channel count : 2 channels
Channel positions : Front: L R
Sampling rate : 44.1 KHz
Compression mode : Lossy
Stream size : 118 MiB (14%)
Encoded date : UTC 2016-07-06 15:05:10
Tagged date : UTC 2016-07-06 15:05:31

Скриншоты



Этап 10 – Гран При Великобритании

Дата гонки: 10,07,2016
Продолжительность: 2:02:45
Качество: WEB-DLRip
Формат: MPEG-4
Видео: MPEG4 Video (H264) 856x480 (137:77) 24fps 772kbps
Аудио: AAC 44100Hz stereo 125kbps

MI

General
Complete name : C:\Фильмы\Формула 1\2016\10.British.Grand.Prix.mp4
Format : MPEG-4
Format profile : Base Media
Codec ID : isom
File size : 790 MiB
Duration : 2h 2mn
Overall bit rate mode : Variable
Overall bit rate : 900 Kbps
Encoded date : UTC 2016-10-10 18:26:20
Tagged date : UTC 2016-10-10 18:26:20
Writing application : FormatFactory : www.pcfreetime.com
Video
ID : 1
Format : AVC
Format/Info : Advanced Video Codec
Format profile : [email protected]
Format settings, CABAC : No
Format settings, ReFrames : 1 frame
Codec ID : avc1
Codec ID/Info : Advanced Video Coding
Duration : 2h 2mn
Bit rate : 768 Kbps
Maximum bit rate : 2 910 Kbps
Width : 856 pixels
Height : 480 pixels
Display aspect ratio : 16:9
Original display aspect ratio : 16:9
Frame rate mode : Constant
Frame rate : 24.000 fps
Color space : YUV
Chroma subsampling : 4:2:0
Bit depth : 8 bits
Scan type : Progressive
Bits/(Pixel*Frame) : 0.078
Stream size : 678 MiB (86%)
Writing library : x264 core 116 r2019 9cc407d
Encoding settings : cabac=0 / ref=1 / deblock=1:0:0 / analyse=0x3:0x113 / me=hex / subme=7 / psy=1 / psy_rd=1.00:0.00 / mixed_ref=0 / me_range=16 / chroma_me=1 / trellis=1 / 8x8dct=1 / cqm=0 / deadzone=21,11 / fast_pskip=1 / chroma_qp_offset=-2 / threads=3 / sliced_threads=0 / nr=0 / decimate=1 / interlaced=0 / bluray_compat=0 / constrained_intra=0 / bframes=0 / weightp=2 / keyint=250 / keyint_min=24 / scenecut=40 / intra_refresh=0 / rc_lookahead=40 / rc=abr / mbtree=1 / bitrate=768 / ratetol=1.0 / qcomp=0.60 / qpmin=0 / qpmax=69 / qpstep=4 / ip_ratio=1.40 / aq=1:1.00
Encoded date : UTC 2016-10-10 18:26:20
Tagged date : UTC 2016-10-10 19:33:09
Audio
ID : 2
Format : AAC
Format/Info : Advanced Audio Codec
Format profile : LC
Codec ID : 40
Duration : 2h 2mn
Bit rate mode : Variable
Bit rate : 126 Kbps
Maximum bit rate : 152 Kbps
Channel count : 2 channels
Channel positions : Front: L R
Sampling rate : 44.1 KHz
Compression mode : Lossy
Stream size : 110 MiB (14%)
Encoded date : UTC 2016-10-10 19:15:49
Tagged date : UTC 2016-10-10 19:33:09

Скриншоты




Этап 11 – Гран При Венгрии

Дата гонки: 24,07,2016
Продолжительность: 2:10:23
Качество: WEB-DLRip
Формат: MPEG-4
Видео: MPEG4 Video (H264) 856x480 (137:77) 24fps 772kbps
Аудио: AAC 44100Hz stereo 125kbps

MI

General
Complete name : C:\Фильмы\Формула 1\2016\11.Hungary.Gran.Prix.mp4
Format : MPEG-4
Format profile : Base Media
Codec ID : isom
File size : 838 MiB
Duration : 2h 10mn
Overall bit rate mode : Variable
Overall bit rate : 899 Kbps
Encoded date : UTC 2016-10-10 21:31:48
Tagged date : UTC 2016-10-10 21:31:48
Writing application : FormatFactory : www.pcfreetime.com
Video
ID : 1
Format : AVC
Format/Info : Advanced Video Codec
Format profile : [email protected]
Format settings, CABAC : No
Format settings, ReFrames : 1 frame
Codec ID : avc1
Codec ID/Info : Advanced Video Coding
Duration : 2h 10mn
Bit rate : 768 Kbps
Maximum bit rate : 2 668 Kbps
Width : 856 pixels
Height : 480 pixels
Display aspect ratio : 16:9
Original display aspect ratio : 16:9
Frame rate mode : Constant
Frame rate : 24.000 fps
Color space : YUV
Chroma subsampling : 4:2:0
Bit depth : 8 bits
Scan type : Progressive
Bits/(Pixel*Frame) : 0.078
Stream size : 719 MiB (86%)
Writing library : x264 core 116 r2019 9cc407d
Encoding settings : cabac=0 / ref=1 / deblock=1:0:0 / analyse=0x3:0x113 / me=hex / subme=7 / psy=1 / psy_rd=1.00:0.00 / mixed_ref=0 / me_range=16 / chroma_me=1 / trellis=1 / 8x8dct=1 / cqm=0 / deadzone=21,11 / fast_pskip=1 / chroma_qp_offset=-2 / threads=3 / sliced_threads=0 / nr=0 / decimate=1 / interlaced=0 / bluray_compat=0 / constrained_intra=0 / bframes=0 / weightp=2 / keyint=250 / keyint_min=24 / scenecut=40 / intra_refresh=0 / rc_lookahead=40 / rc=abr / mbtree=1 / bitrate=768 / ratetol=1.0 / qcomp=0.60 / qpmin=0 / qpmax=69 / qpstep=4 / ip_ratio=1.40 / aq=1:1.00
Encoded date : UTC 2016-10-10 21:31:48
Tagged date : UTC 2016-10-10 21:33:30
Audio
ID : 2
Format : AAC
Format/Info : Advanced Audio Codec
Format profile : LC
Codec ID : 40
Duration : 2h 10mn
Bit rate mode : Variable
Bit rate : 126 Kbps
Maximum bit rate : 167 Kbps
Channel count : 2 channels
Channel positions : Front: L R
Sampling rate : 44.1 KHz
Compression mode : Lossy
Stream size : 117 MiB (14%)
Encoded date : UTC 2016-10-10 21:33:14
Tagged date : UTC 2016-10-10 21:33:30

Скриншоты




Этап 12 – Гран При Германии

Дата гонки: 31,07,2016
Продолжительность: 2:10:58
Качество: WEB-DLRip
Формат: MPEG4
Видео: MPEG4 Video (H264) 856x480 (137:77) 24fps 772kbps
Аудио: AAC 44100Hz stereo 125kbps

MI

General
Complete name : C:\Фильмы\Формула 1\2016\12.Germany.Gran Prix.mp4
Format : MPEG-4
Format profile : Base Media
Codec ID : isom
File size : 844 MiB
Duration : 2h 10mn
Overall bit rate mode : Variable
Overall bit rate : 901 Kbps
Encoded date : UTC 2016-10-10 21:42:48
Tagged date : UTC 2016-10-10 21:42:48
Writing application : FormatFactory : www.pcfreetime.com
Video
ID : 1
Format : AVC
Format/Info : Advanced Video Codec
Format profile : [email protected]
Format settings, CABAC : No
Format settings, ReFrames : 1 frame
Codec ID : avc1
Codec ID/Info : Advanced Video Coding
Duration : 2h 10mn
Bit rate : 768 Kbps
Maximum bit rate : 2 779 Kbps
Width : 856 pixels
Height : 480 pixels
Display aspect ratio : 16:9
Original display aspect ratio : 16:9
Frame rate mode : Constant
Frame rate : 24.000 fps
Color space : YUV
Chroma subsampling : 4:2:0
Bit depth : 8 bits
Scan type : Progressive
Bits/(Pixel*Frame) : 0.078
Stream size : 724 MiB (86%)
Writing library : x264 core 116 r2019 9cc407d
Encoding settings : cabac=0 / ref=1 / deblock=1:0:0 / analyse=0x3:0x113 / me=hex / subme=7 / psy=1 / psy_rd=1.00:0.00 / mixed_ref=0 / me_range=16 / chroma_me=1 / trellis=1 / 8x8dct=1 / cqm=0 / deadzone=21,11 / fast_pskip=1 / chroma_qp_offset=-2 / threads=3 / sliced_threads=0 / nr=0 / decimate=1 / interlaced=0 / bluray_compat=0 / constrained_intra=0 / bframes=0 / weightp=2 / keyint=250 / keyint_min=24 / scenecut=40 / intra_refresh=0 / rc_lookahead=40 / rc=abr / mbtree=1 / bitrate=768 / ratetol=1.0 / qcomp=0.60 / qpmin=0 / qpmax=69 / qpstep=4 / ip_ratio=1.40 / aq=1:1.00
Encoded date : UTC 2016-10-10 21:42:48
Tagged date : UTC 2016-10-10 21:47:00
Audio
ID : 2
Format : AAC
Format/Info : Advanced Audio Codec
Format profile : LC
Codec ID : 40
Duration : 2h 10mn
Bit rate mode : Variable
Bit rate : 126 Kbps
Maximum bit rate : 155 Kbps
Channel count : 2 channels
Channel positions : Front: L R
Sampling rate : 44.1 KHz
Compression mode : Lossy
Stream size : 118 MiB (14%)
Encoded date : UTC 2016-10-10 21:46:31
Tagged date : UTC 2016-10-10 21:47:00

Скриншоты



Этап 13 – Гран При Бельгии

Дата гонки: 28,08,2016
Продолжительность: 2:19:16
Качество: WEB-DLRip
Формат: MPEG4
Видео: MPEG4 Video (H264) 856x480 (137:77) 24fps 772kbps
Аудио: AAC 44100Hz stereo 125kbps

MI

General
Complete name : C:\Фильмы\Формула 1\2016\13.Belgium.Gran.Prix.mp4
Format : MPEG-4
Format profile : Base Media
Codec ID : isom
File size : 897 MiB
Duration : 2h 19mn
Overall bit rate mode : Variable
Overall bit rate : 900 Kbps
Encoded date : UTC 2016-10-10 23:28:07
Tagged date : UTC 2016-10-10 23:28:07
Writing application : FormatFactory : www.pcfreetime.com
Video
ID : 1
Format : AVC
Format/Info : Advanced Video Codec
Format profile : [email protected]
Format settings, CABAC : No
Format settings, ReFrames : 1 frame
Codec ID : avc1
Codec ID/Info : Advanced Video Coding
Duration : 2h 19mn
Bit rate : 768 Kbps
Maximum bit rate : 2 546 Kbps
Width : 856 pixels
Height : 480 pixels
Display aspect ratio : 16:9
Original display aspect ratio : 16:9
Frame rate mode : Constant
Frame rate : 24.000 fps
Color space : YUV
Chroma subsampling : 4:2:0
Bit depth : 8 bits
Scan type : Progressive
Bits/(Pixel*Frame) : 0.078
Stream size : 769 MiB (86%)
Writing library : x264 core 116 r2019 9cc407d
Encoding settings : cabac=0 / ref=1 / deblock=1:0:0 / analyse=0x3:0x113 / me=hex / subme=7 / psy=1 / psy_rd=1.00:0.00 / mixed_ref=0 / me_range=16 / chroma_me=1 / trellis=1 / 8x8dct=1 / cqm=0 / deadzone=21,11 / fast_pskip=1 / chroma_qp_offset=-2 / threads=3 / sliced_threads=0 / nr=0 / decimate=1 / interlaced=0 / bluray_compat=0 / constrained_intra=0 / bframes=0 / weightp=2 / keyint=250 / keyint_min=24 / scenecut=40 / intra_refresh=0 / rc_lookahead=40 / rc=abr / mbtree=1 / bitrate=768 / ratetol=1.0 / qcomp=0.60 / qpmin=0 / qpmax=69 / qpstep=4 / ip_ratio=1.40 / aq=1:1.00
Encoded date : UTC 2016-10-10 23:28:07
Tagged date : UTC 2016-10-10 23:30:15
Audio
ID : 2
Format : AAC
Format/Info : Advanced Audio Codec
Format profile : LC
Codec ID : 40
Duration : 2h 19mn
Bit rate mode : Variable
Bit rate : 126 Kbps
Maximum bit rate : 155 Kbps
Channel count : 2 channels
Channel positions : Front: L R
Sampling rate : 44.1 KHz
Compression mode : Lossy
Stream size : 125 MiB (14%)
Encoded date : UTC 2016-10-10 23:29:56
Tagged date : UTC 2016-10-10 23:30:15

Скриншоты




Этап 14 – Гран При Италии

Дата гонки: 04,09,2016
Продолжительность: 1:57:57
Качество: WEB-DLRip
Формат: MPEG4
Видео: MPEG4 Video (H264) 856x480 (30:17) 24fps 772kbps
Аудио: AAC 44100Hz stereo 125kbps

MI

General
Complete name : D:\кино\Формула 1\2016\14.Italy.Gran.Prix.mp4
Format : MPEG-4
Format profile : Base Media
Codec ID : isom
File size : 760 MiB
Duration : 1h 57mn
Overall bit rate mode : Variable
Overall bit rate : 901 Kbps
Encoded date : UTC 2016-09-06 05:09:04
Tagged date : UTC 2016-09-06 05:09:04
Writing application : FormatFactory : www.pcfreetime.com
Video
ID : 1
Format : AVC
Format/Info : Advanced Video Codec
Format profile : [email protected]
Format settings, CABAC : No
Format settings, ReFrames : 1 frame
Codec ID : avc1
Codec ID/Info : Advanced Video Coding
Duration : 1h 57mn
Bit rate : 768 Kbps
Maximum bit rate : 2 723 Kbps
Width : 856 pixels
Height : 480 pixels
Display aspect ratio : 16:9
Frame rate mode : Constant
Frame rate : 24.000 fps
Color space : YUV
Chroma subsampling : 4:2:0
Bit depth : 8 bits
Scan type : Progressive
Bits/(Pixel*Frame) : 0.078
Stream size : 652 MiB (86%)
Writing library : x264 core 116 r2019 9cc407d
Encoded date : UTC 2016-09-06 05:09:04
Tagged date : UTC 2016-09-06 05:11:21
Audio
ID : 2
Format : AAC
Format/Info : Advanced Audio Codec
Format profile : LC
Codec ID : 40
Duration : 1h 57mn
Bit rate mode : Variable
Bit rate : 126 Kbps
Maximum bit rate : 162 Kbps
Channel count : 2 channels
Channel positions : Front: L R
Sampling rate : 44.1 KHz
Compression mode : Lossy
Stream size : 106 MiB (14%)
Encoded date : UTC 2016-09-06 05:11:02
Tagged date : UTC 2016-09-06 05:11:21

Скриншоты




Этап 15 – Гран При Сингапура

Дата гонки: 18,09,2016
Продолжительность: 02:09:39
Качество: WEB-DLRip
Формат: MPEG4
Видео: MPEG4 Video (H264) 856x480 (137:77) 24fps 770kbps
Аудио: AAC 44100Hz stereo 125kbps

MI

General
Complete name : G:\15 Singhapoor.Gran.Prix.mp4
Format : MPEG-4
Format profile : Base Media
Codec ID : isom
File size : 833 MiB
Duration : 2h 9mn
Overall bit rate mode : Variable
Overall bit rate : 898 Kbps
Encoded date : UTC 2016-09-23 14:20:13
Tagged date : UTC 2016-09-23 14:20:13
Writing application : FormatFactory : www.pcfreetime.com
Video
ID : 1
Format : AVC
Format/Info : Advanced Video Codec
Format profile : [email protected]
Format settings, CABAC : No
Format settings, ReFrames : 1 frame
Codec ID : avc1
Codec ID/Info : Advanced Video Coding
Duration : 2h 9mn
Bit rate : 768 Kbps
Maximum bit rate : 2 185 Kbps
Width : 856 pixels
Height : 480 pixels
Display aspect ratio : 16:9
Original display aspect ratio : 16:9
Frame rate mode : Constant
Frame rate : 24.000 fps
Color space : YUV
Chroma subsampling : 4:2:0
Bit depth : 8 bits
Scan type : Progressive
Bits/(Pixel*Frame) : 0.078
Stream size : 714 MiB (86%)
Writing library : x264 core 116 r2019 9cc407d
Encoding settings : cabac=0 / ref=1 / deblock=1:0:0 / analyse=0x3:0x113 / me=hex / subme=7 / psy=1 / psy_rd=1.00:0.00 / mixed_ref=0 / me_range=16 / chroma_me=1 / trellis=1 / 8x8dct=1 / cqm=0 / deadzone=21,11 / fast_pskip=1 / chroma_qp_offset=-2 / threads=3 / sliced_threads=0 / nr=0 / decimate=1 / interlaced=0 / bluray_compat=0 / constrained_intra=0 / bframes=0 / weightp=2 / keyint=250 / keyint_min=24 / scenecut=40 / intra_refresh=0 / rc_lookahead=40 / rc=abr / mbtree=1 / bitrate=768 / ratetol=1.0 / qcomp=0.60 / qpmin=0 / qpmax=69 / qpstep=4 / ip_ratio=1.40 / aq=1:1.00
Encoded date : UTC 2016-09-23 14:20:13
Tagged date : UTC 2016-09-23 14:21:36
Audio
ID : 2
Format : AAC
Format/Info : Advanced Audio Codec
Format profile : LC
Codec ID : 40
Duration : 2h 9mn
Bit rate mode : Variable
Bit rate : 126 Kbps
Maximum bit rate : 167 Kbps
Channel count : 2 channels
Channel positions : Front: L R
Sampling rate : 44.1 KHz
Compression mode : Lossy
Stream size : 116 MiB (14%)
Encoded date : UTC 2016-09-23 14:21:19
Tagged date : UTC 2016-09-23 14:21:36

Скриншоты




Этап 16 – Гран При Малайзии

Дата гонки: 02,10,2016
Продолжительность: 02:09:39
Качество: WEB-DLRip
Формат: MPEG4
Видео: MPEG4 Video (H264) 856x480 (137:77) 24fps 770kbps
Аудио: AAC 44100Hz stereo 125kbps

MI

General
Complete name : C:\Фильмы\Формула 1\2016\16.Malaysiaa.Grand.Prix.mp4
Format : MPEG-4
Format profile : Base Media
Codec ID : isom
File size : 892 MiB
Duration : 2h 18mn
Overall bit rate mode : Variable
Overall bit rate : 898 Kbps
Encoded date : UTC 2016-10-10 23:38:54
Tagged date : UTC 2016-10-10 23:38:54
Writing application : FormatFactory : www.pcfreetime.com
Video
ID : 1
Format : AVC
Format/Info : Advanced Video Codec
Format profile : [email protected]
Format settings, CABAC : No
Format settings, ReFrames : 1 frame
Codec ID : avc1
Codec ID/Info : Advanced Video Coding
Duration : 2h 18mn
Bit rate : 768 Kbps
Maximum bit rate : 2 964 Kbps
Width : 856 pixels
Height : 480 pixels
Display aspect ratio : 16:9
Original display aspect ratio : 16:9
Frame rate mode : Constant
Frame rate : 24.000 fps
Color space : YUV
Chroma subsampling : 4:2:0
Bit depth : 8 bits
Scan type : Progressive
Bits/(Pixel*Frame) : 0.078
Stream size : 765 MiB (86%)
Writing library : x264 core 116 r2019 9cc407d
Encoding settings : cabac=0 / ref=1 / deblock=1:0:0 / analyse=0x3:0x113 / me=hex / subme=7 / psy=1 / psy_rd=1.00:0.00 / mixed_ref=0 / me_range=16 / chroma_me=1 / trellis=1 / 8x8dct=1 / cqm=0 / deadzone=21,11 / fast_pskip=1 / chroma_qp_offset=-2 / threads=3 / sliced_threads=0 / nr=0 / decimate=1 / interlaced=0 / bluray_compat=0 / constrained_intra=0 / bframes=0 / weightp=2 / keyint=250 / keyint_min=24 / scenecut=40 / intra_refresh=0 / rc_lookahead=40 / rc=abr / mbtree=1 / bitrate=768 / ratetol=1.0 / qcomp=0.60 / qpmin=0 / qpmax=69 / qpstep=4 / ip_ratio=1.40 / aq=1:1.00
Encoded date : UTC 2016-10-10 23:38:54
Tagged date : UTC 2016-10-10 23:42:53
Audio
ID : 2
Format : AAC
Format/Info : Advanced Audio Codec
Format profile : LC
Codec ID : 40
Duration : 2h 18mn
Bit rate mode : Variable
Bit rate : 126 Kbps
Maximum bit rate : 151 Kbps
Channel count : 2 channels
Channel positions : Front: L R
Sampling rate : 44.1 KHz
Compression mode : Lossy
Stream size : 125 MiB (14%)
Encoded date : UTC 2016-10-10 23:42:11
Tagged date : UTC 2016-10-10 23:42:53

Скриншоты





Этап 17 – Гран При Японии

Дата гонки: 09,10,2016
Продолжительность: 02:04:35
Качество: WEB-DLRip
Формат: MPEG4
Видео: MPEG4 Video (H264) 856x480 (137:77) 24fps 770kbps
Аудио: AAC 44100Hz stereo 125kbps

MI

General
Complete name : C:\Фильмы\Формула 1\2016\17.Japanese.Grand.Prix.mp4
Format : MPEG-4
Format profile : Base Media
Codec ID : isom
File size : 802 MiB
Duration : 2h 4mn
Overall bit rate mode : Variable
Overall bit rate : 900 Kbps
Encoded date : UTC 2016-10-11 05:42:57
Tagged date : UTC 2016-10-11 05:42:57
Writing application : FormatFactory : www.pcfreetime.com
Video
ID : 1
Format : AVC
Format/Info : Advanced Video Codec
Format profile : [email protected]
Format settings, CABAC : No
Format settings, ReFrames : 1 frame
Codec ID : avc1
Codec ID/Info : Advanced Video Coding
Duration : 2h 4mn
Bit rate : 768 Kbps
Maximum bit rate : 2 810 Kbps
Width : 856 pixels
Height : 480 pixels
Display aspect ratio : 16:9
Original display aspect ratio : 16:9
Frame rate mode : Constant
Frame rate : 24.000 fps
Color space : YUV
Chroma subsampling : 4:2:0
Bit depth : 8 bits
Scan type : Progressive
Bits/(Pixel*Frame) : 0.078
Stream size : 688 MiB (86%)
Writing library : x264 core 116 r2019 9cc407d
Encoding settings : cabac=0 / ref=1 / deblock=1:0:0 / analyse=0x3:0x113 / me=hex / subme=7 / psy=1 / psy_rd=1.00:0.00 / mixed_ref=0 / me_range=16 / chroma_me=1 / trellis=1 / 8x8dct=1 / cqm=0 / deadzone=21,11 / fast_pskip=1 / chroma_qp_offset=-2 / threads=3 / sliced_threads=0 / nr=0 / decimate=1 / interlaced=0 / bluray_compat=0 / constrained_intra=0 / bframes=0 / weightp=2 / keyint=250 / keyint_min=24 / scenecut=40 / intra_refresh=0 / rc_lookahead=40 / rc=abr / mbtree=1 / bitrate=768 / ratetol=1.0 / qcomp=0.60 / qpmin=0 / qpmax=69 / qpstep=4 / ip_ratio=1.40 / aq=1:1.00
Encoded date : UTC 2016-10-11 05:42:57
Tagged date : UTC 2016-10-11 05:47:57
Audio
ID : 2
Format : AAC
Format/Info : Advanced Audio Codec
Format profile : LC
Codec ID : 40
Duration : 2h 4mn
Bit rate mode : Variable
Bit rate : 126 Kbps
Maximum bit rate : 161 Kbps
Channel count : 2 channels
Channel positions : Front: L R
Sampling rate : 44.1 KHz
Compression mode : Lossy
Stream size : 112 MiB (14%)
Encoded date : UTC 2016-10-11 05:47:16
Tagged date : UTC 2016-10-11 05:47:57

Скриншоты




Этап 18 – Гран При США

Дата гонки: 23,10,2016
Продолжительность: 02:19:55
Качество: WEB-DLRip
Формат: MP4
Видео: MPEG4 Video (H264) 856x480 (427:240) 24fps 774kbps
Аудио: AAC 44100Hz stereo 125kbps

MI

General
Complete name : C:\Фильмы\Формула 1\2016\18.United.States.Grand.Prix.mp4
Format : MPEG-4
Format profile : Base Media
Codec ID : isom (isom/avc1)
File size : 903 MiB
Duration : 2 h 19 min
Overall bit rate mode : Variable
Overall bit rate : 902 kb/s
Encoded date : UTC 2016-10-26 06:11:29
Tagged date : UTC 2016-10-26 06:11:29
Writing application : FormatFactory : www.pcfreetime.com
Video
ID : 1
Format : AVC
Format/Info : Advanced Video Codec
Format profile : [email protected]
Format settings, CABAC : No
Format settings, ReFrames : 1 frame
Codec ID : avc1
Codec ID/Info : Advanced Video Coding
Duration : 2 h 19 min
Bit rate : 768 kb/s
Maximum bit rate : 2 845 kb/s
Width : 856 pixels
Height : 480 pixels
Display aspect ratio : 16:9
Original display aspect ratio : 16:9
Frame rate mode : Constant
Frame rate : 24.000 FPS
Color space : YUV
Chroma subsampling : 4:2:0
Bit depth : 8 bits
Scan type : Progressive
Bits/(Pixel*Frame) : 0.078
Stream size : 775 MiB (86%)
Writing library : x264 core 116 r2019 9cc407d
Encoding settings : cabac=0 / ref=1 / deblock=1:0:0 / analyse=0x3:0x113 / me=hex / subme=7 / psy=1 / psy_rd=1.00:0.00 / mixed_ref=0 / me_range=16 / chroma_me=1 / trellis=1 / 8x8dct=1 / cqm=0 / deadzone=21,11 / fast_pskip=1 / chroma_qp_offset=-2 / threads=3 / sliced_threads=0 / nr=0 / decimate=1 / interlaced=0 / bluray_compat=0 / constrained_intra=0 / bframes=0 / weightp=2 / keyint=250 / keyint_min=24 / scenecut=40 / intra_refresh=0 / rc_lookahead=40 / rc=abr / mbtree=1 / bitrate=768 / ratetol=1.0 / qcomp=0.60 / qpmin=0 / qpmax=69 / qpstep=4 / ip_ratio=1.40 / aq=1:1.00
Encoded date : UTC 2016-10-26 06:11:29
Tagged date : UTC 2016-10-26 06:14:47
Audio
ID : 2
Format : AAC
Format/Info : Advanced Audio Codec
Format profile : LC
Codec ID : 40
Duration : 2 h 19 min
Bit rate mode : Variable
Bit rate : 126 kb/s
Maximum bit rate : 211 kb/s
Channel(s) : 2 channels
Channel positions : Front: L R
Sampling rate : 44.1 kHz
Frame rate : 43.066 FPS (1024 spf)
Compression mode : Lossy
Stream size : 126 MiB (14%)
Encoded date : UTC 2016-10-26 06:14:05
Tagged date : UTC 2016-10-26 06:14:47

Скриншоты



Этап 19 – Гран При Мексики

Дата гонки: 30,10,2016
Продолжительность: 02:18:45
Качество: WEB-DLRip
Формат: MP4
Видео: MPEG4 Video (H264) 856x480 (427:240) 24fps 774kbps
Аудио: AAC 44100Hz stereo 125kbps

MI

General
Complete name : C:\Фильмы\Формула 1\2016\19.Mexico.Grand.Prix.mp4
Format : MPEG-4
Format profile : Base Media
Codec ID : isom (isom/avc1)
File size : 895 MiB
Duration : 2 h 18 min
Overall bit rate mode : Variable
Overall bit rate : 902 kb/s
Encoded date : UTC 2016-11-03 10:16:33
Tagged date : UTC 2016-11-03 10:16:33
Writing application : FormatFactory : www.pcfreetime.com
Video
ID : 1
Format : AVC
Format/Info : Advanced Video Codec
Format profile : [email protected]
Format settings, CABAC : No
Format settings, ReFrames : 1 frame
Codec ID : avc1
Codec ID/Info : Advanced Video Coding
Duration : 2 h 18 min
Bit rate : 768 kb/s
Maximum bit rate : 3 249 kb/s
Width : 856 pixels
Height : 480 pixels
Display aspect ratio : 16:9
Original display aspect ratio : 16:9
Frame rate mode : Constant
Frame rate : 24.000 FPS
Color space : YUV
Chroma subsampling : 4:2:0
Bit depth : 8 bits
Scan type : Progressive
Bits/(Pixel*Frame) : 0.078
Stream size : 768 MiB (86%)
Writing library : x264 core 116 r2019 9cc407d
Encoding settings : cabac=0 / ref=1 / deblock=1:0:0 / analyse=0x3:0x113 / me=hex / subme=7 / psy=1 / psy_rd=1.00:0.00 / mixed_ref=0 / me_range=16 / chroma_me=1 / trellis=1 / 8x8dct=1 / cqm=0 / deadzone=21,11 / fast_pskip=1 / chroma_qp_offset=-2 / threads=3 / sliced_threads=0 / nr=0 / decimate=1 / interlaced=0 / bluray_compat=0 / constrained_intra=0 / bframes=0 / weightp=2 / keyint=250 / keyint_min=24 / scenecut=40 / intra_refresh=0 / rc_lookahead=40 / rc=abr / mbtree=1 / bitrate=768 / ratetol=1.0 / qcomp=0.60 / qpmin=0 / qpmax=69 / qpstep=4 / ip_ratio=1.40 / aq=1:1.00
Encoded date : UTC 2016-11-03 10:16:33
Tagged date : UTC 2016-11-03 10:20:53
Audio
ID : 2
Format : AAC
Format/Info : Advanced Audio Codec
Format profile : LC
Codec ID : 40
Duration : 2 h 18 min
Bit rate mode : Variable
Bit rate : 126 kb/s
Maximum bit rate : 154 kb/s
Channel(s) : 2 channels
Channel positions : Front: L R
Sampling rate : 44.1 kHz
Frame rate : 43.066 FPS (1024 spf)
Compression mode : Lossy
Stream size : 125 MiB (14%)
Encoded date : UTC 2016-11-03 10:20:07
Tagged date : UTC 2016-11-03 10:20:53

Скриншоты




Этап 20 – Гран При Бразилии

Дата гонки: 13,11,2016
Продолжительность: 03:48:55
Качество: WEB-DLRip
Формат: MP4
Видео: MPEG4 Video (H264) 856x480 (427:240) 24fps 768kbps
Аудио: AAC 44100Hz stereo 126kbps

MI

General
Complete name : C:\Фильмы\Формула 1\2016\20..Brazil.Grand.Prix.mp4
Format : MPEG-4
Format profile : Base Media
Codec ID : isom (isom/avc1)
File size : 1.44 GiB
Duration : 3 h 48 min
Overall bit rate mode : Variable
Overall bit rate : 900 kb/s
Encoded date : UTC 2016-11-18 05:43:26
Tagged date : UTC 2016-11-18 05:43:26
Writing application : FormatFactory : www.pcfreetime.com
Video
ID : 1
Format : AVC
Format/Info : Advanced Video Codec
Format profile : [email protected]
Format settings, CABAC : No
Format settings, ReFrames : 1 frame
Codec ID : avc1
Codec ID/Info : Advanced Video Coding
Duration : 3 h 48 min
Bit rate : 768 kb/s
Maximum bit rate : 3 877 kb/s
Width : 856 pixels
Height : 480 pixels
Display aspect ratio : 16:9
Original display aspect ratio : 16:9
Frame rate mode : Constant
Frame rate : 24.000 FPS
Color space : YUV
Chroma subsampling : 4:2:0
Bit depth : 8 bits
Scan type : Progressive
Bits/(Pixel*Frame) : 0.078
Stream size : 1.23 GiB (86%)
Writing library : x264 core 116 r2019 9cc407d
Encoding settings : cabac=0 / ref=1 / deblock=1:0:0 / analyse=0x3:0x113 / me=hex / subme=7 / psy=1 / psy_rd=1.00:0.00 / mixed_ref=0 / me_range=16 / chroma_me=1 / trellis=1 / 8x8dct=1 / cqm=0 / deadzone=21,11 / fast_pskip=1 / chroma_qp_offset=-2 / threads=3 / sliced_threads=0 / nr=0 / decimate=1 / interlaced=0 / bluray_compat=0 / constrained_intra=0 / bframes=0 / weightp=2 / keyint=250 / keyint_min=24 / scenecut=40 / intra_refresh=0 / rc_lookahead=40 / rc=abr / mbtree=1 / bitrate=768 / ratetol=1.0 / qcomp=0.60 / qpmin=0 / qpmax=69 / qpstep=4 / ip_ratio=1.40 / aq=1:1.00
Encoded date : UTC 2016-11-18 05:43:26
Tagged date : UTC 2016-11-18 05:46:30
Audio
ID : 2
Format : AAC
Format/Info : Advanced Audio Codec
Format profile : LC
Codec ID : 40
Duration : 3 h 48 min
Bit rate mode : Variable
Bit rate : 126 kb/s
Maximum bit rate : 163 kb/s
Channel(s) : 2 channels
Channel positions : Front: L R
Sampling rate : 44.1 kHz
Frame rate : 43.066 FPS (1024 spf)
Compression mode : Lossy
Stream size : 206 MiB (14%)
Encoded date : UTC 2016-11-18 05:45:50
Tagged date : UTC 2016-11-18 05:46:30

Скриншоты



Этап 21 – Гран При Абу-Даби

Дата гонки: 27,11,2016
Продолжительность: 01:51:12
Качество: WEB-DLRip
Формат: MP4
Видео: MPEG4 Video (H264) 856x480 (427:240) 24fps 772kbps
Аудио: AAC 44100Hz stereo 125kbps

MI

General
Complete name : C:\Фильмы\Формула 1\2016\21.Abu.Dhabi.Grand.Prix.mp4
Format : MPEG-4
Format profile : Base Media
Codec ID : isom (isom/avc1)
File size : 716 MiB
Duration : 1 h 51 min
Overall bit rate mode : Variable
Overall bit rate : 900 kb/s
Encoded date : UTC 2016-12-03 10:13:57
Tagged date : UTC 2016-12-03 10:13:57
Writing application : FormatFactory : www.pcfreetime.com
Video
ID : 1
Format : AVC
Format/Info : Advanced Video Codec
Format profile : [email protected]
Format settings, CABAC : No
Format settings, ReFrames : 1 frame
Codec ID : avc1
Codec ID/Info : Advanced Video Coding
Duration : 1 h 51 min
Bit rate : 768 kb/s
Maximum bit rate : 2 291 kb/s
Width : 856 pixels
Height : 480 pixels
Display aspect ratio : 16:9
Original display aspect ratio : 16:9
Frame rate mode : Constant
Frame rate : 24.000 FPS
Color space : YUV
Chroma subsampling : 4:2:0
Bit depth : 8 bits
Scan type : Progressive
Bits/(Pixel*Frame) : 0.078
Stream size : 614 MiB (86%)
Writing library : x264 core 116 r2019 9cc407d
Encoding settings : cabac=0 / ref=1 / deblock=1:0:0 / analyse=0x3:0x113 / me=hex / subme=7 / psy=1 / psy_rd=1.00:0.00 / mixed_ref=0 / me_range=16 / chroma_me=1 / trellis=1 / 8x8dct=1 / cqm=0 / deadzone=21,11 / fast_pskip=1 / chroma_qp_offset=-2 / threads=3 / sliced_threads=0 / nr=0 / decimate=1 / interlaced=0 / bluray_compat=0 / constrained_intra=0 / bframes=0 / weightp=2 / keyint=250 / keyint_min=24 / scenecut=40 / intra_refresh=0 / rc_lookahead=40 / rc=abr / mbtree=1 / bitrate=768 / ratetol=1.0 / qcomp=0.60 / qpmin=0 / qpmax=69 / qpstep=4 / ip_ratio=1.40 / aq=1:1.00
Encoded date : UTC 2016-12-03 10:13:57
Tagged date : UTC 2016-12-03 10:15:15
Audio
ID : 2
Format : AAC
Format/Info : Advanced Audio Codec
Format profile : LC
Codec ID : 40
Duration : 1 h 51 min
Bit rate mode : Variable
Bit rate : 126 kb/s
Maximum bit rate : 162 kb/s
Channel(s) : 2 channels
Channel positions : Front: L R
Sampling rate : 44.1 kHz
Frame rate : 43.066 FPS (1024 spf)
Compression mode : Lossy
Stream size : 99.9 MiB (14%)
Encoded date : UTC 2016-12-03 10:15:01
Tagged date : UTC 2016-12-03 10:15:15

Скриншоты



КОНЕЦ СЕЗОНА
ДО ВСТРЕЧИ В МАРТЕ 2017 ГОДА


Последний раз редактировалось: beshka666 (2016-12-03 18:07), всего редактировалось 35 раз(а)

Создавать темы 05-Апр-2016 09:20

[Профиль]  [ЛС] 

Dima Musalov

Стаж: 2 года 4 месяца

Сообщений: 1

Ребят,скорость нужна,еле качается.

Создавать темы 05-Апр-2016 19:05

[Профиль]  [ЛС] 

beshka666 ®

Стаж: 2 года 1 месяц

Сообщений: 34

Симпатии: 20

Не знаю почему, но здесь отдачи вообще нет, а на соседнем трекере скорость отдаче нормальная

Создавать темы 12-Апр-2016 12:23

[Профиль]  [ЛС] 

bobius-1

Стаж: 4 года 4 месяца

Сообщений: 3

Почему нет раздачи???? Грустно очень!

Создавать темы 20-Апр-2016 21:14

[Профиль]  [ЛС] 

beshka666 ®

Стаж: 2 года 1 месяц

Сообщений: 34

Симпатии: 20

Скачавшие, просьба не уходить с раздачи, у меня плохая отдача, пусть другие тоже скачают

Создавать темы 23-Май-2016 08:52

[Профиль]  [ЛС] 

bobius-1

Стаж: 4 года 4 месяца

Сообщений: 3

дай раздачу....

Создавать темы 24-Май-2016 22:24

[Профиль]  [ЛС] 
Показать сообщения:    
Ответить на тему

Текущее время: 26-Сен 01:37

Часовой пояс: UTC + 5



Вы не можете начинать темы
Вы не можете отвечать на сообщения
Вы не можете редактировать свои сообщения
Вы не можете удалять свои сообщения
Вы не можете голосовать в опросах
Вы не можете прикреплять файлы к сообщениям
Вы не можете скачивать файлы