Охота на работу / Get a Job (Дилан Кидд) [2016, США, Kомедия, WEB-DLRip] [RecentFilms]

Ответить на тему
 

ruhal ®

Стаж: 2 года 4 месяца

Сообщений: 1182

Симпатии: 1836

-Охота на работу / Get a Job-""Graduating Was the Easy Part""-
Страна: США
Жанр: Kомедия
Год выпуска: 2016
Продолжительность: 01:22:45-Перевод: Любительский (многоголосый) [RecentFilms]
Cубтитры: нет-Режиссер: Дилан Кидд-В ролях: Элисон Бри, Анна Кендрик, Брайан Крэнстон, Майлз Теллер, Николас Браун,
Марша Гей Харден, Кристофер Минц-Плассе, Джон К. МакГинли, Хорхе Гарсиа, Рави Патель-Описание: Сюжет ленты строится вокруг выпускника колледжа и его друзей.
Молодые специалисты стоят на распутье, чем заниматься, зачем и тому ли они учились.
В стране Экономический кризис, а молодежь хочет отрываться.-Качество видео: WEB-DLRip
Формат видео: AVI
Видео: Xvid 720x400 23.976fps
Аудио: Dolby AC3 48000Hz stereo 384kbps
- -

MediaInfo

General
Complete name : E:\Films\Get.a.Job.2016.WEB-DLRip.1400MB.avi
Format : AVI
Format/Info : Audio Video Interleave
File size : 1.37 GiB
Duration : 1h 22mn
Overall bit rate : 2 364 Kbps
Writing application : VirtualDubMod 1.5.10.2 (build 2540/release)
Writing library : VirtualDubMod build 2540/release
Video
ID : 0
Format : MPEG-4 Visual
Format profile : Advanced [email protected]
Format settings, BVOP : 2
Format settings, QPel : No
Format settings, GMC : No warppoints
Format settings, Matrix : Default (MPEG)
Codec ID : XVID
Codec ID/Hint : XviD
Duration : 1h 22mn
Source duration : 2mn 46s
Bit rate : 1 771 Kbps
Width : 720 pixels
Height : 400 pixels
Display aspect ratio : 16:9
Frame rate : 23.976 fps
Color space : YUV
Chroma subsampling : 4:2:0
Bit depth : 8 bits
Scan type : Progressive
Compression mode : Lossy
Bits/(Pixel*Frame) : 0.256
Stream size : 35.1 MiB (3%)
Writing library : XviD 1.2.1 (UTC 2008-12-04)
Audio
ID : 1
Format : AC-3
Format/Info : Audio Coding 3
Mode extension : CM (complete main)
Format settings, Endianness : Big
Codec ID : 2000
Duration : 1h 22mn
Source duration : 2mn 46s
Bit rate mode : Constant
Bit rate : 384 Kbps
Channel(s) : 2 channels
Channel positions : Front: L R
Sampling rate : 48.0 KHz
Bit depth : 16 bits
Compression mode : Lossy
Stream size : 7.64 MiB (1%)
Alignment : Split accross interleaves
Interleave, duration : 42 ms (1.00 video frame)
Interleave, preload duration : 500 ms

Скриншот c названием фильма

Скриншоты





Последний раз редактировалось: ruhal (2016-04-05 20:12), всего редактировалось 1 раз

Создавать темы 05-Апр-2016 13:36

[Профиль]  [ЛС] 

TimaK

Стаж: 6 лет 3 месяца

Сообщений: 129

Симпатии: 23

Рейтинг не подскажите?

Создавать темы 05-Апр-2016 19:05

[Профиль]  [ЛС] 

abuz85

Стаж: 8 лет 7 месяцев

Сообщений: 109

Симпатии: 80

TimaK, Рейтинг: 4,68

Создавать темы 05-Апр-2016 19:11

[Профиль]  [ЛС] 

ruhal ®

Стаж: 2 года 4 месяца

Сообщений: 1182

Симпатии: 1836

971697TimaK, Рейтинг: 4,68

Создавать темы 05-Апр-2016 20:13

[Профиль]  [ЛС] 
Показать сообщения:    
Ответить на тему

Текущее время: 16-Авг 22:34

Часовой пояс: UTC + 5



Вы не можете начинать темы
Вы не можете отвечать на сообщения
Вы не можете редактировать свои сообщения
Вы не можете удалять свои сообщения
Вы не можете голосовать в опросах
Вы не можете прикреплять файлы к сообщениям
Вы не можете скачивать файлы