Скиталец Эндры / Endride (Гото Кэйдзи) [TV] [09 из 24] [Без хардсаб] [RUS] [2016, приключения, фэнтези, HDTVRip] [720p]

Ответить на тему
 

maksimus_1712 ®

Стаж: 4 года 4 месяца

Сообщений: 122

Симпатии: 68

-Скиталец Эндры / Endride- Год: 2016
Жанр: приключения, фэнтези
Страна: Япония
Количество серий: 24
Продолжительность: 24 минуты
Дата выпуска: c 03.04.2016
Режиссер: Гото Кэйдзи
Автор оригинала / Сценарист: Матида Токо
Озвучивание: Nika Lenina, Vel, Gecep, Cuba77
Перевод: Hex, FooBoo
Тайминг и работа со звуком: NeSqUiK
Студия:
Описание: Однажды Шун Асанага, ученик средней школы, находит в кабинете своего отца таинственный кристалл и стоило ему прикоснуться к нему, как в миг он оказался в другом мире. В мире под названием Эндра. Здесь Шун встречает принца королевства Эндра, Эмилио. Вместе им предстоит освободить страну из под гнета короля Дэлзейна и найти способ вернуть Шуна в его мир.-Дополнительная информация: AniDB || WA || MAL-Качество: HDTVRip
Формат: MP4
Видео: x264, 1280x720, 23.976fps, 2525kbps
Аудио: AAC, 48000Hz, 192kbps, 2ch- -

MediaInfo

General
Complete name                  : [AniDub]_Endride_01_[720p]_[MVO].mp4
Format                         : MPEG-4
Format profile                 : Base Media
Codec ID                       : isom
File size                      : 444 MiB
Duration                       : 22mn 49s
Overall bit rate mode          : Variable
Overall bit rate               : 2 722 Kbps
Encoded date                   : UTC 2016-04-03 19:55:42
Tagged date                    : UTC 2016-04-03 19:55:42
Writing application            : Yamb 2.1.0.0 [http://yamb.unite-video.com]
Video
ID                             : 1
Format                         : AVC
Format/Info                    : Advanced Video Codec
Format profile                 : [email protected]
Format settings, CABAC         : Yes
Format settings, ReFrames      : 4 frames
Codec ID                       : avc1
Codec ID/Info                  : Advanced Video Coding
Duration                       : 22mn 49s
Bit rate                       : 2 526 Kbps
Maximum bit rate               : 17.7 Mbps
Width                          : 1 280 pixels
Height                         : 720 pixels
Display aspect ratio           : 16:9
Frame rate mode                : Constant
Frame rate                     : 23.976 fps
Color space                    : YUV
Chroma subsampling             : 4:2:0
Bit depth                      : 8 bits
Scan type                      : Progressive
Bits/(Pixel*Frame)             : 0.114
Stream size                    : 412 MiB (93%)
Title                          : 264
Writing library                : x264 core 129 r2245+729M 1a52e03
Encoding settings              : cabac=1 / ref=4 / deblock=1:1:-1 / analyse=0x3:0x113 / me=umh / subme=9 / psy=1 / fade_compensate=0.00 / psy_rd=1.00:0.00 / mixed_ref=1 / me_range=24 / chroma_me=1 / trellis=2 / 8x8dct=1 / cqm=0 / deadzone=21,11 / fast_pskip=1 / chroma_qp_offset=-2 / threads=8 / lookahead_threads=1 / sliced_threads=0 / nr=0 / decimate=1 / interlaced=0 / bluray_compat=0 / constrained_intra=0 / fgo=0 / bframes=9 / b_pyramid=2 / b_adapt=2 / b_bias=0 / direct=1 / weightb=1 / open_gop=0 / weightp=2 / keyint=240 / keyint_min=24 / scenecut=40 / intra_refresh=0 / rc=crf / mbtree=0 / crf=17.0 / qcomp=0.72 / qpmin=0 / qpmax=69 / qpstep=4 / ip_ratio=1.40 / pb_ratio=1.30 / aq=1:0.85
Encoded date                   : UTC 2016-04-03 07:01:51
Tagged date                    : UTC 2016-04-03 19:55:59
Color primaries                : BT.709
Transfer characteristics       : BT.709
Matrix coefficients            : BT.709
Audio
ID                             : 2
Format                         : AAC
Format/Info                    : Advanced Audio Codec
Format profile                 : LC
Codec ID                       : 40
Duration                       : 22mn 49s
Bit rate mode                  : Variable
Bit rate                       : 192 Kbps
Maximum bit rate               : 200 Kbps
Channel(s)                     : 2 channels
Channel positions              : Front: L R
Sampling rate                  : 48.0 KHz
Compression mode               : Lossy
Stream size                    : 31.4 MiB (7%)
Language                       : English
Encoded date                   : UTC 2016-04-03 19:55:58
Tagged date                    : UTC 2016-04-03 19:55:59
-


Последний раз редактировалось: maksimus_1712 (2016-06-18 21:37), всего редактировалось 3 раз(а)

Создавать темы 05-Апр-2016 19:48

[Профиль]  [ЛС] 

maksimus_1712 ®

Стаж: 4 года 4 месяца

Сообщений: 122

Симпатии: 68

2-Серия

Создавать темы 13-Апр-2016 21:57

[Профиль]  [ЛС] 

farik9193

Стаж: 5 лет 1 месяц

Сообщений: 501

Симпатии: 47

Яой ты ли это ? О_о

Создавать темы 06-Май-2016 23:11

[Профиль]  [ЛС] 

maksimus_1712 ®

Стаж: 4 года 4 месяца

Сообщений: 122

Симпатии: 68

973517Яой ты ли это ? О_о
- bw Не знаю еще не зырил

Создавать темы 07-Май-2016 01:05

[Профиль]  [ЛС] 

daniellya

Стаж: 5 лет 8 месяцев

Сообщений: 338

Симпатии: 29

> обыкновенный шонин с мужской дружбой и всеми вытекающими
> называть это яоем
докатились...

Создавать темы 07-Май-2016 01:12

[Профиль]  [ЛС] 

farik9193

Стаж: 5 лет 1 месяц

Сообщений: 501

Симпатии: 47

daniellya,
> обыкновенный шонин с мужской дружбой и всеми вытекающими
такой жанр именуется сенен-ай ем и очень близок к яойу . вот и спросил . )))

Создавать темы 07-Май-2016 01:55

[Профиль]  [ЛС] 

daniellya

Стаж: 5 лет 8 месяцев

Сообщений: 338

Симпатии: 29

Лол, теперь шонин с мужской дружбой это шонин-ай. Нарик, хлорка, кусок, феечка - все веет геями :)

Создавать темы 07-Май-2016 10:22

[Профиль]  [ЛС] 

maksimus_1712 ®

Стаж: 4 года 4 месяца

Сообщений: 122

Симпатии: 68

3-7-Серия

Создавать темы 21-Май-2016 13:12

[Профиль]  [ЛС] 

falenfrost

Стаж: 5 лет 1 месяц

Сообщений: 55

Симпатии: 14

Продолжение будет?

Создавать темы 18-Июн-2016 19:19

[Профиль]  [ЛС] 

maksimus_1712 ®

Стаж: 4 года 4 месяца

Сообщений: 122

Симпатии: 68

976513Продолжение будет?
-Конечно!!!

Создавать темы 18-Июн-2016 21:34

[Профиль]  [ЛС] 

maksimus_1712 ®

Стаж: 4 года 4 месяца

Сообщений: 122

Симпатии: 68

Обновлено до 9-Серии

Создавать темы 18-Июн-2016 21:38

[Профиль]  [ЛС] 
Показать сообщения:    
Ответить на тему

Текущее время: 13-Дек 06:37

Часовой пояс: UTC + 5



Вы не можете начинать темы
Вы не можете отвечать на сообщения
Вы не можете редактировать свои сообщения
Вы не можете удалять свои сообщения
Вы не можете голосовать в опросах
Вы не можете прикреплять файлы к сообщениям
Вы не можете скачивать файлы