А ты думал, что твоя жена в онлайн-игре на самом деле не девушка? / Netoge no Yome wa Onnanoko ja Nai to Omotta? (Янаги Синсукэ) [TV] [02 из 12] [Без хардсаба] [RUS(ext), JAP+SUB] [2016 г., комедия, романтика, школа, этти, HDTVRip] [720p]

Ответить на тему
 

Азиз87 ®

Стаж: 5 лет 1 месяц

Сообщений: 752

Симпатии: 143

-
Страна: Япония
Год выпуска: 2016
Жанр: комедия, романтика, школа, этти
Продолжительность: >12 эп. по 25 мин
Режиссер: Янаги Синсукэ
Студия: Project №9-Субтитры:
  • Русские субтитры от [AOS Team] (внешним файлом)
    Перевод: MnemosyneKsailocent | Редактор: Tieria D. Flourite | Оформление: Asuran D. Flourite
-Описание:
Наш главный герой, Хидеки Нишимура, уже однажды обжегся, влюбившись в... Как бы сказать нежнее? MMORPG-эшного трансвестита. Но, не смотря на это, через пару лет он решает жениться в игре. Его избранницу зовут Ако. В подробности реального пола любимой Хидеки предпочитает не вдаваться. И все бы хорошо, но вот глава их гильдии решает, что им всем срочно необходимо вылезти из онлайна и устроить реальную встречу. World Art-Качество: HDTVRip | Формат видео: MP4
Видео: AVC (8 bits), 1280х720, ~2 100 kbps, 23.976 fps
Аудио Japanese: AAC, ~192 kbps, 48.0 KHz, 2.0 ch
Аудио Russian: AAC, ~192 kbps, 48.0 KHz, 2.0 ch - Silv, Lupin & Itashi (Anilibria)

Подробные тех. данные:

General
Complete name : [Leopard-Raws] Netoge no Yome wa Onnanoko ja Nai to Omotta - 01 RAW (ATX 1280x720 x264 AAC).mp4
Format : MPEG-4
Format profile : Base Media
Codec ID : isom (isom/avc1)
File size : 403 MiB
Duration : 24mn 30s
Overall bit rate mode : Variable
Overall bit rate : 2 302 Kbps
Encoded date : UTC 2016-04-07 19:57:37
Tagged date : UTC 2016-04-07 19:57:37
Video
ID : 1
Format : AVC
Format/Info : Advanced Video Codec
Format profile : [email protected]
Format settings, CABAC : Yes
Format settings, ReFrames : 4 frames
Codec ID : avc1
Codec ID/Info : Advanced Video Coding
Duration : 24mn 29s
Bit rate : 2 107 Kbps
Maximum bit rate : 12.3 Mbps
Width : 1 280 pixels
Height : 720 pixels
Display aspect ratio : 16:9
Frame rate mode : Constant
Frame rate : 23.976 (24000/1001) fps
Color space : YUV
Chroma subsampling : 4:2:0
Bit depth : 8 bits
Scan type : Progressive
Bits/(Pixel*Frame) : 0.095
Stream size : 369 MiB (91%)
Title : 264:[email protected]
Writing library : x264 core 129 r2245+729M 1a52e03
Encoding settings : cabac=1 / ref=4 / deblock=1:1:-1 / analyse=0x3:0x113 / me=umh / subme=9 / psy=1 / fade_compensate=0.00 / psy_rd=1.00:0.00 / mixed_ref=1 / me_range=24 / chroma_me=1 / trellis=2 / 8x8dct=1 / cqm=0 / deadzone=21,11 / fast_pskip=1 / chroma_qp_offset=-2 / threads=8 / lookahead_threads=1 / sliced_threads=0 / nr=0 / decimate=1 / interlaced=0 / bluray_compat=0 / constrained_intra=0 / fgo=0 / bframes=9 / b_pyramid=2 / b_adapt=2 / b_bias=0 / direct=1 / weightb=1 / open_gop=0 / weightp=2 / keyint=240 / keyint_min=24 / scenecut=40 / intra_refresh=0 / rc=crf / mbtree=0 / crf=18.5 / qcomp=0.72 / qpmin=0 / qpmax=69 / qpstep=4 / ip_ratio=1.40 / pb_ratio=1.30 / aq=1:0.85
Encoded date : UTC 2016-04-07 19:57:37
Tagged date : UTC 2016-04-07 19:57:40
Color range : Limited
Color primaries : BT.709
Transfer characteristics : BT.709
Matrix coefficients : BT.709
Audio
ID : 2
Format : AAC
Format/Info : Advanced Audio Codec
Format profile : LC
Codec ID : 40
Duration : 24mn 30s
Bit rate mode : Variable
Bit rate : 192 Kbps
Maximum bit rate : 226 Kbps
Channel(s) : 2 channels
Channel positions : Front: L R
Sampling rate : 48.0 KHz
Frame rate : 46.875 fps (1024 spf)
Compression mode : Lossy
Stream size : 33.6 MiB (8%)
Language : Japanese
Encoded date : UTC 2016-04-07 17:22:06
Tagged date : UTC 2016-04-07 19:57:40


Последний раз редактировалось: Азиз87 (2016-04-19 12:07), всего редактировалось 3 раз(а)

Создавать темы 09-Апр-2016 07:55

[Профиль]  [ЛС] 

Азиз87 ®

Стаж: 5 лет 1 месяц

Сообщений: 752

Симпатии: 143

Добавлена 1-я серия.
Приятного просмотра!
Не забудьте установить шрифты перед просмотром с субтитрами

Создавать темы 09-Апр-2016 09:33

[Профиль]  [ЛС] 

Dragneel

Стаж: 6 лет 11 месяцев

Сообщений: 50

Симпатии: 9

Азиз87, Может озвучку от анидаба тоже добавишь

Создавать темы 10-Апр-2016 18:18

[Профиль]  [ЛС] 

Азиз87 ®

Стаж: 5 лет 1 месяц

Сообщений: 752

Симпатии: 143

971912Азиз87, Может озвучку от анидаба тоже добавишь
Если пользователь pcab1829 или другой добавят в свою раздачу внешним файлом, то может быть, но самому скачивать и е mx ся с подгонкой к видео равке, ну уж нет и одного релиза Призрачного мира фантомов хватило с хорибл равками к видео!

Создавать темы 10-Апр-2016 20:17

[Профиль]  [ЛС] 

Азиз87 ®

Стаж: 5 лет 1 месяц

Сообщений: 752

Симпатии: 143


Неохота за упокой причитать, но пережить еще одно падение будет краем терпения!

Создавать темы 19-Апр-2016 12:13

[Профиль]  [ЛС] 

qaswert

Стаж: 5 лет 8 месяцев

Сообщений: 27

Симпатии: 2

Ждём следуюших серий! :)

Создавать темы 24-Апр-2016 20:32

[Профиль]  [ЛС] 

qaswert

Стаж: 5 лет 8 месяцев

Сообщений: 27

Симпатии: 2

Продолжение будете выкладывать ??

Создавать темы 06-Май-2016 15:09

[Профиль]  [ЛС] 

farik9193

Стаж: 5 лет 1 месяц

Сообщений: 501

Симпатии: 47

Читал мангу . На большое чем две главы меня не хватили . УГ вобшем . Хотя отдельным сабжам может быть по нраву этот тайтл . Да и качественно этти сейчас редкость а точнее его нет)))

Создавать темы 06-Май-2016 23:07

[Профиль]  [ЛС] 
Показать сообщения:    
Ответить на тему

Текущее время: 13-Дек 21:32

Часовой пояс: UTC + 5



Вы не можете начинать темы
Вы не можете отвечать на сообщения
Вы не можете редактировать свои сообщения
Вы не можете удалять свои сообщения
Вы не можете голосовать в опросах
Вы не можете прикреплять файлы к сообщениям
Вы не можете скачивать файлы