Любовные неприятности - Тьма 2 / To Love-Ru: Trouble - Darkness 2nd (Оцуки Ацуси) [TV] [14+1 из 14+1] [Без хардсаба] [RUS(ext), JAP+SUB] [2015 г., комедия, этти, BDRip] [1080p] R16+

Ответить на тему
 

Азиз87 ®

Стаж: 4 года 11 месяцев

Сообщений: 752

Симпатии: 143

-
Страна: Япония
Год выпуска: 2015 г.
Жанр: комедия, этти
Тип: TV
Продолжительность: 14 эп. по ~25 мин.
Режиссер: Оцуки Ацуси
Студия: Xebec-Описание: Казалось бы, повышенное женское внимание будет приятно любому здоровому подростку, который, разумеется, питает хоть какой-то интерес к противоположному полу. Увы, не зря говорят, мол, «хорошенького понемножку» – некогда совсем обычный школьник Рито Юуки на собственном опыте убедился, что девушки приносят с собой проблемы. И что знакомство с инопланетянкой Лалой, принцессой из семьи хозяев Галактики, было лишь началом его личных переживаний.
С тех пор, как Рито узнал о существовании разумной жизни за пределами земли, ему довелось познакомиться с несколькими соотечественницами Лалы и, неожиданно для самого себя, собрать вокруг целый гарем влюблённых в него девиц. А поскольку сам Рито, как подобает благородному и совершенно неопытному главному герою, о чувствах девушек имеет разве что смутное представление - вот и приходится ему старательно держать себя в руках и поддерживать с землянками и инопланетянками хорошие отношения, пока непредсказуемые гостьи, чья культура разрешает полигамные браки, задаются вопросом, хватит ли любви их принца на всех его поклонниц.-Качество: BDRip
Тип релиза: Без хардсаба
Формат видео: MKV
Наличие линковки: Нет
Видео: x264 (10 bit), 1920x1080, ~4 000 Kbps, 23.976 fps
Аудио JAP: FLAC, 48.0 kHz, ~1400 Kbps, 2ch, 24 bit
Аудио RUS: ААС, 48.0 kHz, ~192 Kbps, 2 ch (внешними файлами); Озвучка: одноголосая (муж.) от Cuba77 (AniDub)
Субтитры RUS: ASS, внешние; Перевод: Gerale; Редактура: Komugi-chan (надписи/полные)
-

Подробные тех. данные

General
Unique ID : 188763563167538990721011204164428428918 (0x8E028A350269090A90911526A226F676)
Complete name : [VCB-S&philosophy-raws][To LOVE-Ru Darkness 2nd][01][BDRIP][Hi10P FLAC][1920X1080].mkv
Format : Matroska
Format version : Version 4 / Version 2
File size : 928 MiB
Duration : 23mn 42s
Overall bit rate mode : Variable
Overall bit rate : 5 471 Kbps
Encoded date : UTC 2016-03-20 09:12:01
Writing application : mkvmerge v8.9.0 ('Father Daughter') 32bit
Writing library : libebml v1.3.3 + libmatroska v1.4.4
Video
ID : 1
Format : AVC
Format/Info : Advanced Video Codec
Format profile : High [email protected]
Format settings, CABAC : Yes
Format settings, ReFrames : 8 frames
Codec ID : V_MPEG4/ISO/AVC
Duration : 23mn 42s
Bit rate : 4 027 Kbps
Width : 1 920 pixels
Height : 1 080 pixels
Display aspect ratio : 16:9
Frame rate mode : Constant
Frame rate : 23.976 (24000/1001) fps
Color space : YUV
Chroma subsampling : 4:2:0
Bit depth : 10 bits
Scan type : Progressive
Bits/(Pixel*Frame) : 0.081
Stream size : 683 MiB (74%)
Writing library : x264 core 148 r2651+51 e71d6a9 7mod [[email protected]:2:0 X86_64]
Encoding settings : cabac=1 / ref=8 / deblock=1:-1:-1 / analyse=0x3:0x133 / me=umh / subme=10 / psy=1 / fade_compensate=0.00 / psy_rd=0.60:0.15 / mixed_ref=1 / me_range=24 / chroma_me=1 / trellis=2 / 8x8dct=1 / cqm=0 / deadzone=21,11 / fast_pskip=0 / chroma_qp_offset=-3 / threads=16 / lookahead_threads=2 / sliced_threads=0 / nr=0 / decimate=1 / interlaced=0 / bluray_compat=0 / constrained_intra=0 / fgo=1 / bframes=8 / b_pyramid=2 / b_adapt=2 / b_bias=0 / direct=3 / weightb=1 / open_gop=0 / weightp=2 / keyint=720 / keyint_min=1 / scenecut=40 / intra_refresh=0 / rc_lookahead=72 / rc=crf / mbtree=1 / crf=18.0000 / qcomp=0.80 / qpmin=0:0:0 / qpmax=81:81:81 / qpstep=4 / vbv_maxrate=25600 / vbv_bufsize=30720 / crf_max=0.0 / nal_hrd=none / filler=0 / ip_ratio=1.40 / aq=1:0.80 / aq-sensitivity=10.00 / aq-factor=1.00:1.00:1.00 / aq2=0 / aq3=0
Language : English
Default : Yes
Forced : No
Color range : Limited
Matrix coefficients : BT.709
Audio
ID : 2
Format : FLAC
Format/Info : Free Lossless Audio Codec
Codec ID : A_FLAC
Duration : 23mn 42s
Bit rate mode : Variable
Bit rate : 1 442 Kbps
Channel(s) : 2 channels
Channel positions : Front: L R
Sampling rate : 48.0 KHz
Frame rate : 11.719 fps (4096 spf)
Bit depth : 24 bits
Stream size : 245 MiB (26%)
Writing library : libFLAC 1.3.1 (UTC 2014-11-25)
Language : Japanese
Default : Yes
Forced : No
Menu
00:00:00.000 : en:Chapter 01
00:01:55.032 : en:Chapter 02
00:03:24.996 : en:Chapter 03
00:09:46.044 : en:Chapter 04
00:21:55.981 : en:Chapter 05
00:23:25.988 : en:Chapter 06

Список эпизодов

01. Unconsciously: Light-Headed and Heart-Pounding
02. Uneasy: An Uncertain Heart
03. After a Storm Comes a Calm: Friends
04. Summer Festival: Beginning of the Festival
05. New Move: Two of a Kind?
06. Manservant: Competition
07. Resistance: I Know, but Still
08. Danger: Danger
09. Kiss: What Lies Beyond a Kiss
10. True Character: True Identity Revealed!?
11. The Beginning of Darkness: That Time
12. Prediction Is Impossible: Rampaging Darkness
13. Power and Power: Protector and the Protected
14. Bright Future: Thank You

Отличия

HDTVRip, 720p VS BDRip, 1080p, альтернативная озвучка
BDRip, 720p VS BDRip, 1080p, все серии

Скриншоты



Последний раз редактировалось: Азиз87 (2016-04-10 18:00), всего редактировалось 1 раз

Создавать темы 09-Апр-2016 16:18

[Профиль]  [ЛС] 

Азиз87 ®

Стаж: 4 года 11 месяцев

Сообщений: 752

Симпатии: 143

оформление еще не доделано, завтра добью до конца.
Кому интересно вставайте на скачку, т.к. у меня Уо некоторых не вижу.
Раздаю в приоритете раздела онгоингов.

Создавать темы 09-Апр-2016 16:22

[Профиль]  [ЛС] 

Азиз87 ®

Стаж: 4 года 11 месяцев

Сообщений: 752

Симпатии: 143

Может кто-нибудь в ЛС будет кидать адресс и порт чтобы смог добавлять в клиент для раздачи?

Создавать темы 15-Апр-2016 16:18

[Профиль]  [ЛС] 

daniellya

Стаж: 5 лет 6 месяцев

Сообщений: 338

Симпатии: 29

я б скачал и встал на раздачу но [1080p] немного жирновато

Создавать темы 15-Апр-2016 17:40

[Профиль]  [ЛС] 

Азиз87 ®

Стаж: 4 года 11 месяцев

Сообщений: 752

Симпатии: 143

972300я б скачал и встал на раздачу но [1080p] немного жирновато
значить вы не видели еще рипы за 1,5гб на серию от philosophy-raws, да и мой любимый релизер Aglen походу забил на раздел БД рипов на рутрекере, видать работы много.
Но все равно спасибо за поддержку. mb

Создавать темы 15-Апр-2016 19:41

[Профиль]  [ЛС] 

Alex_38

Стаж: 5 лет 7 месяцев

Сообщений: 336

Симпатии: 37

972307мой любимый релизер Aglen походу забил на раздел БД рипов на рутрекере, видать работы много.
Не, у него депрессия, с девушкой расстался, не может это пережить. Теперь работает только, чтоб на жизнь и на необходимое хватало, а в свободное время занят он просмотром фильмов/аниме.

Создавать темы 15-Апр-2016 20:16

[Профиль]  [ЛС] 

daniellya

Стаж: 5 лет 6 месяцев

Сообщений: 338

Симпатии: 29

>значить вы не видели еще рипы за 1,5гб на серию от philosophy-raws
Видел равки от Беатриче по 2 гига )
>депрессия, с девушкой расстался, не может это пережить
>депрессия из-за тян

Итог - живые бабы - зло, а мог бы только в 2D тней, они не принесут тебе боли. Лучше бы дальше рипал =\

Создавать темы 15-Апр-2016 20:41

[Профиль]  [ЛС] 

kartwright

Стаж: 2 года 7 месяцев

Сообщений: 35

Симпатии: 9

Не, у него депрессия, с девушкой расстался, не может это пережить
Бедный Агленн. Плюс из-за этой шкуры много людей лишилось годных БДрипов .. Oh God, WHY?!

Создавать темы 15-Апр-2016 22:57

[Профиль]  [ЛС] 

daniellya

Стаж: 5 лет 6 месяцев

Сообщений: 338

Симпатии: 29

Выход один-ехать местному Агленну в Россию, делать и выкладывать рипы вместо своего семпая :D

Создавать темы 16-Апр-2016 00:03

[Профиль]  [ЛС] 

Rin-mandarin

Стаж: 6 лет 10 месяцев

Сообщений: 110

Симпатии: 51

Скрины может стоит исправить?

Создавать темы 24-Июл-2016 21:47

[Профиль]  [ЛС] 

SNIL

Стаж: 5 лет 9 месяцев

Сообщений: 2624

Симпатии: 341

Rin-mandarin, А что с ними? Красивые и округлые)

Создавать темы 25-Июл-2016 15:32

[Профиль]  [ЛС] 

Dionis-J

Стаж: 3 года 10 месяцев

Сообщений: 34

Симпатии: 1

aa У кого не "качает" , пробуйте - Вкладка ПИРЫ > добавить пир... - 31.135.214.16:63142 , до 26 . 03-ого месяца !!!

Создавать темы 09-Фев-2017 01:30

[Профиль]  [ЛС] 
Показать сообщения:    
Ответить на тему

Текущее время: 17-Окт 20:22

Часовой пояс: UTC + 5



Вы не можете начинать темы
Вы не можете отвечать на сообщения
Вы не можете редактировать свои сообщения
Вы не можете удалять свои сообщения
Вы не можете голосовать в опросах
Вы не можете прикреплять файлы к сообщениям
Вы не можете скачивать файлы