Ходячие мертвецы / The Walking Dead / Сезон: 6 / Серии: 1-16 из 16 (Фрэнк Дарабонт, Эрнест Р. Дикерсон, Гай Ферленд) [2015-2016, Ужасы, WEB-DLRip] (MVO : FoX) (Original)

Ответить на тему
 

Mamutov ®

Стаж: 4 года 9 месяцев

Сообщений: 255

Симпатии: 144

--- ХОДЯЧИЕ МЕРТВЕЦЫ / The Walking Dead
---Год выпуска: 2015
Страна: США
Жанр: Ужасы
Продолжительность: 01:04:44-Перевод: Профессиональный (многоголосый закадровый)FoX
Русские субтитры: нет
Режиссёр: Фрэнк Дарабонт, Эрнест Р. Дикерсон, Гай Ферленд-В ролях: Джон Бернтал, Джеффри ДеМун, Лори Холден, Эндрю Линкольн, Адам Минарович, Чендлер Риггз, Майкл Рукер, Сара Уэйн Кэллис-Описание: После страшной болезни, превратившей жителей Земли в зомби, небольшая группа пока еще живых людей изо дня в день борется за выживание в новом, враждебном мире. Под предводительством бывшего полицейского Рика они ищут безопасное для жизни место, но зомби — это не самое страшное, что их ждет, основная опасность — это жестокое внутреннее соперничество среди выживших.
-Качество: WEB-DLRip
Формат: AVI
Видео кодек: XviD
Аудио кодек: MP3
Видео: XviD, 720x400 (16:9), 23,976 fps, ~1500 kbps
Аудио: MP3, 48 kHz, 2 ch, 128 kbps Rus
Аудио: MP3, 48 kHz, 2 ch, 128 kbps Eng
---

Список серий

01. Снова, как в первый раз First Time Again
02. Выживи любой ценой JSS
03. Thank You
04. Here's Not Here
05. Now
06. Always Accountable
07. Heads Up
08. Start to Finish
09. No Way Out
10. The Next World
11. Knots Untie
12. Not Tomorrow Yet
13. The Same Boat
14. Twice as Far
15. East
16. Last Day on Earth

Релиз

Озвучка: Fox
Подготовка релиза: NewStudio

MediaInfo

Полное имя                               : The Walking Dead.S06.WEB-DLRip.RusEng.NewStudio\The Walking Dead.S06E01.WEB-DLRip.RusEng.NewStudio.L.avi
Формат                                   : AVI
Формат/Информация                        : Audio Video Interleave
Размер файла                             : 821 Мбайт
Продолжительность                        : 1 ч. 4 м.
Общий поток                              : 1772 Кбит/сек
Программа кодирования                    : VirtualDubMod 1.5.10.3 (build 2550/release)
Библиотека кодирования                   : VirtualDubMod build 2550/release
Видео
Идентификатор                            : 0
Формат                                   : MPEG-4 Visual
Профиль формата                          : Advanced [email protected]
Параметр BVOP формата                    : 1
Параметр QPel формата                    : Нет
Параметр GMC формата                     : Без точки перехода
Параметр матрицы формата                 : Default (H.263)
Идентификатор кодека                     : XVID
Идентификатор кодека/Подсказка           : XviD
Продолжительность                        : 1 ч. 4 м.
Битрейт                                  : 1502 Кбит/сек
Ширина                                   : 720 пикселей
Высота                                   : 400 пикселей
Соотношение сторон                       : 16:9
Частота кадров                           : 23,976 кадра/сек
Цветовое пространство                    : YUV
Субдискретизация насыщенности            : 4:2:0
Битовая глубина                          : 8 бит
Тип развёртки                            : Прогрессивная
Метод сжатия                             : С потерями
Бит/(Пиксели*Кадры)                      : 0.218
Размер потока                            : 696 Мбайт (85%)
Библиотека кодирования                   : XviD 1.2.1 (UTC 2008-12-04)
Аудио #1
Идентификатор                            : 1
Формат                                   : MPEG Audio
Версия формата                           : Version 1
Профиль формата                          : Layer 3
Режим                                    : Joint stereo
Расширение режима                        : MS Stereo
Идентификатор кодека                     : 55
Идентификатор кодека/Подсказка           : MP3
Продолжительность                        : 1 ч. 4 м.
Вид битрейта                             : Постоянный
Битрейт                                  : 128 Кбит/сек
Каналы                                   : 2 канала
Частота                                  : 48,0 КГц
Метод сжатия                             : С потерями
Размер потока                            : 59,3 Мбайт (7%)
Выравнивание                             : Соединение по промежуткам
Продолжительность промежутка             : 42  мс. (1,00 видеокадр)
Время предзагрузки промежутка            : 504  мс.
Аудио #2
Идентификатор                            : 2
Формат                                   : MPEG Audio
Версия формата                           : Version 1
Профиль формата                          : Layer 3
Режим                                    : Joint stereo
Расширение режима                        : MS Stereo
Идентификатор кодека                     : 55
Идентификатор кодека/Подсказка           : MP3
Продолжительность                        : 1 ч. 4 м.
Вид битрейта                             : Постоянный
Битрейт                                  : 128 Кбит/сек
Каналы                                   : 2 канала
Частота                                  : 48,0 КГц
Метод сжатия                             : С потерями
Размер потока                            : 59,3 Мбайт (7%)
Выравнивание                             : Соединение по промежуткам
Продолжительность промежутка             : 42  мс. (1,00 видеокадр)
Время предзагрузки промежутка            : 504  мс.

Скриншоты





Последний раз редактировалось: Mamutov (2016-04-21 22:59), всего редактировалось 2 раз(а)

Создавать темы 09-Апр-2016 23:32

[Профиль]  [ЛС] 

Mamutov ®

Стаж: 4 года 9 месяцев

Сообщений: 255

Симпатии: 144

конец сезона

Создавать темы 09-Апр-2016 23:34

[Профиль]  [ЛС] 

CERO

Стаж: 4 года 4 месяца

Сообщений: 3

дайте скорости плиз 2% осталось

Создавать темы 30-Апр-2016 12:57

[Профиль]  [ЛС] 

lexa1994

Стаж: 5 лет 4 месяца

Сообщений: 46

РЕБЯТА ПОЖАЛУЙСТА НА РАЗДАЧУ ПОСТАВЬТЕ !!!!!!!!!!!!

Создавать темы 28-Июл-2016 23:31

[Профиль]  [ЛС] 
Показать сообщения:    
Ответить на тему

Текущее время: 19-Окт 14:16

Часовой пояс: UTC + 5



Вы не можете начинать темы
Вы не можете отвечать на сообщения
Вы не можете редактировать свои сообщения
Вы не можете удалять свои сообщения
Вы не можете голосовать в опросах
Вы не можете прикреплять файлы к сообщениям
Вы не можете скачивать файлы