Пандемия / Pandemic (Джон Суитц / John Suits) [2016, США, Фантастика, боевик, триллер, WEB-DLRip] (DVO : Parovoz Production)

Ответить на тему
 

UZM ®

Стаж: 5 лет 6 месяцев

Сообщений: 169

Симпатии: 189

Пандемия / Pandemic
Страна: США
Жанр: Фантастика, боевик, триллер
Год выпуска: 2016
Продолжительность: 01:32:03
Перевод: Любительский (двухголосый закадровый) Доп. инфо о переводе Parovoz Production
Cубтитры: нет
Режиссер: Джон Суитц / John Suits
В ролях: Рэйчел Николс, Мисси Пайл, Элфи Оуэн-Аллен, Мекхай Файфер, Пол Гилфойл, Даниэль Роуз Расселл, Джина Ли, Джонатан Бакхаус, Ниа Дюн
Описание: На планете Земля зверствует страшный вирус, превращающий людей в безмозглых и агрессивных тварей. Доктор Лорен в составе небольшой группы направлена в центр города с заданием найти и спасти незаражённых выживших.
Качество видео: WEB-DLRip
Формат видео: AVI
Видео: MPEG-4, Xvid 720x304 23.976fps 1723kbps
Аудио: Dolby AC3 48,0Hz stereo 192kbps (русский-любительский)
Аудио 2: Dolby AC3 48,0Hz stereo 192kbps (английский-оригинал)

MediaInfo

General
Complete name : D:\Кино\Фильмы 2016\Pandemic.2016.WEB-DLRip.avi
Format : AVI
Format/Info : Audio Video Interleave
File size : 1.36 GiB
Duration : 1h 32mn
Overall bit rate : 2 122 Kbps
Movie name : rustorrents.info
Writing application : VirtualDubMod 1.5.10.3 | www.virtualdub-fr.org || (build 2550/release)
Video
ID : 0
Format : MPEG-4 Visual
Format profile : Advanced [email protected]
Format settings, BVOP : 2
Format settings, QPel : No
Format settings, GMC : No warppoints
Format settings, Matrix : Default (H.263)
Muxing mode : Packed bitstream
Codec ID : XVID
Codec ID/Hint : XviD
Duration : 1h 32mn
Bit rate : 1 724 Kbps
Width : 720 pixels
Height : 304 pixels
Display aspect ratio : 2.35:1
Frame rate : 23.976 fps
Color space : YUV
Chroma subsampling : 4:2:0
Bit depth : 8 bits
Scan type : Progressive
Compression mode : Lossy
Bits/(Pixel*Frame) : 0.328
Stream size : 1.11 GiB (81%)
Writing library : XviD 66
Audio #1
ID : 1
Format : AC-3
Format/Info : Audio Coding 3
Mode extension : CM (complete main)
Format settings, Endianness : Big
Codec ID : 2000
Duration : 1h 32mn
Bit rate mode : Constant
Bit rate : 192 Kbps
Channel(s) : 2 channels
Channel positions : Front: L R
Sampling rate : 48.0 KHz
Compression mode : Lossy
Stream size : 126 MiB (9%)
Alignment : Split accross interleaves
Interleave, duration : 42 ms (1.00 video frame)
Interleave, preload duration : 500 ms
Audio #2
ID : 2
Format : AC-3
Format/Info : Audio Coding 3
Mode extension : CM (complete main)
Format settings, Endianness : Big
Codec ID : 2000
Duration : 1h 32mn
Bit rate mode : Constant
Bit rate : 192 Kbps
Channel(s) : 2 channels
Channel positions : Front: L R
Sampling rate : 48.0 KHz
Compression mode : Lossy
Stream size : 126 MiB (9%)
Alignment : Split accross interleaves
Interleave, duration : 42 ms (1.00 video frame)
Interleave, preload duration : 500 ms

Скриншот c названием фильма

Скриншоты

,
,
,
,


Последний раз редактировалось: UZM (2016-04-15 09:50), всего редактировалось 2 раз(а)

Создавать темы 10-Апр-2016 12:46

[Профиль]  [ЛС] 

falenfrost

Стаж: 5 лет

Сообщений: 55

Симпатии: 14

файл битый. на 14-й минуте кину капут.

Создавать темы 11-Апр-2016 22:53

[Профиль]  [ЛС] 

falenfrost

Стаж: 5 лет

Сообщений: 55

Симпатии: 14

сори, похоже KMPlayer гдючит. на других идет.

Создавать темы 11-Апр-2016 23:02

[Профиль]  [ЛС] 

UZM ®

Стаж: 5 лет 6 месяцев

Сообщений: 169

Симпатии: 189

У меня VLC и Media Player пашет отлично и ни каких битых мест

Создавать темы 12-Апр-2016 06:39

[Профиль]  [ЛС] 

Paladinuz

Стаж: 5 лет 9 месяцев

Сообщений: 137

Симпатии: 85

если честно то уже поднадоела эта заезженая история про вирусы, злых полулюдозверей, отважного единочеловека (как всегда американца), что то голливуд застопорился на этой теме.

Создавать темы 12-Апр-2016 13:41

[Профиль]  [ЛС] 

UZM ®

Стаж: 5 лет 6 месяцев

Сообщений: 169

Симпатии: 189

Вы правы мой друг

Создавать темы 12-Апр-2016 21:17

[Профиль]  [ЛС] 

proxick

Стаж: 3 года 10 месяцев

Сообщений: 6

Симпатии: 9

Ребят стоит смотреть или как....

Создавать темы 12-Апр-2016 22:30

[Профиль]  [ЛС] 

malinka12345678

Стаж: 1 год 11 месяцев

Сообщений: 4

Симпатии: 3

первый скриншот ваше ржачный! Вы видели костюм какой? Это пасечники, ну кто за пчёлами следит! Он точно поможет от вируса и зомбаков! Кстати фильм снят на карманные деньги самих актёров! =)

Создавать темы 13-Апр-2016 12:48

[Профиль]  [ЛС] 

UZM ®

Стаж: 5 лет 6 месяцев

Сообщений: 169

Симпатии: 189

malinka12345678, По ващей просьбе приказал снять и надеть другую

Создавать темы 15-Апр-2016 09:51

[Профиль]  [ЛС] 

timawow1

Стаж: 6 лет 11 месяцев

Сообщений: 59

Симпатии: 32

Автору респект за релиз и проделанную работу! Но увы и ай фильм как бы это выразиться по мяг4е ... шлак! Но кто любит фильмы от 1-го лица и с таким сюжетом прошу любить и жаловать ка4айте на здоровье :)

Создавать темы 01-Май-2016 00:55

[Профиль]  [ЛС] 

Dik97

Стаж: 4 года 10 месяцев

Сообщений: 3

Симпатии: 3

film musor

Создавать темы 04-Май-2016 09:57

[Профиль]  [ЛС] 

s7a1b1i8r3

Стаж: 5 лет 10 месяцев

Сообщений: 17

фильм не смотрел, но на последнем скрине какой-то ляп что ли. в кадре все прислонились к решётки. а внизу в середине видна какая то открытая калитка. странно.

Создавать темы 05-Май-2016 14:01

[Профиль]  [ЛС] 

shamshod7

Стаж: 1 год 11 месяцев

Сообщений: 56

Симпатии: 21

973388фильм не смотрел, но на последнем скрине какой-то ляп что ли. в кадре все прислонились к решётки. а внизу в середине видна какая то открытая калитка. странно.
красава.они тупие ag

Создавать темы 05-Май-2016 17:58

[Профиль]  [ЛС] 

Daimos

Стаж: 5 лет 3 месяца

Сообщений: 35

Симпатии: 8

фильм не смотрел, но на последнем скрине какой-то ляп что ли. в кадре все прислонились к решётки. а внизу в середине видна какая то открытая калитка. странно.
Зомби не идиот, зомби в гору пойдет ;)
если честно то уже поднадоела эта заезженая история про вирусы, злых полулюдозверей, отважного единочеловека (как всегда американца), что то голливуд застопорился на этой теме.
Это что, у них там целая куча школ по выживанию открылись где на полном серьезе учат выживать при зомби-апокалипсисе. Такие наивные :)

Создавать темы 16-Май-2016 22:56

[Профиль]  [ЛС] 
Показать сообщения:    
Ответить на тему

Текущее время: 23-Ноя 08:52

Часовой пояс: UTC + 5



Вы не можете начинать темы
Вы не можете отвечать на сообщения
Вы не можете редактировать свои сообщения
Вы не можете удалять свои сообщения
Вы не можете голосовать в опросах
Вы не можете прикреплять файлы к сообщениям
Вы не можете скачивать файлы