Обратный отсчёт / Countdown (Джон Стокуэлл / John Stockwell) [2016, США, Боевик, криминал, BDRip] (MVO ViruseProject)

Ответить на тему
 

UZM ®

Стаж: 5 лет 5 месяцев

Сообщений: 169

Симпатии: 189

Обратный отсчёт / Countdown
Страна: США
Жанр: Боевик, криминал
Год выпуска: 2016
Продолжительность: 01:30:09
Перевод: Любительский многоголосый Доп. инфо о переводе ViruseProject
Cубтитры: нет
Режиссер: Джон Стокуэлл / John Stockwell
В ролях: Глен "Кейн" Джейкобс, Кэтрин Изабель, Ник Немет, Александр Калугин, Андре Трикоте, Андреа Штефанчикова, Алан О’Сильва, Майкл Копса, Сарван Бадеша, Джош Блэкер
Описание: Неизвестный преступник похищает маленького мальчика, обвешивает его мощной взрывчаткой и угрожет взорвать в людном месте. Полицейский Рэй Томпсон, сам год назад потерявший сына, берет правосудие в свои руки. Обратный отсчёт начинается…
Качество видео: BDRip
Формат видео: AVI
Видео: Xvid 720x400 23.976fps 1910kbps
Аудио: Русский: Dolby AC3 48,0Hz stereo 192kbps Любительский многоголосый]
Аудио 2: Аглийский: Dolby AC3 48,0Hz stereo 192kbps [Оригинал]

MediaInfo

General
Complete name : D:\Кино\Фильмы 2016\Countdown.2016.L.BDRip.avi
Format : AVI
Format/Info : Audio Video Interleave
File size : 1.45 GiB
Duration : 1h 30mn
Overall bit rate : 2 309 Kbps
Writing application : VirtualDubMod 1.5.10.3 | www.virtualdub-fr.org || (build 2550/release)
Writing library : VirtualDubMod build 2550/release
Video
ID : 0
Format : MPEG-4 Visual
Format profile : Advanced [email protected]
Format settings, BVOP : 1
Format settings, QPel : No
Format settings, GMC : No warppoints
Format settings, Matrix : Custom
Codec ID : XVID
Codec ID/Hint : XviD
Duration : 1h 30mn
Bit rate : 1 910 Kbps
Width : 720 pixels
Height : 400 pixels
Display aspect ratio : 16:9
Frame rate : 23.976 fps
Color space : YUV
Chroma subsampling : 4:2:0
Bit depth : 8 bits
Scan type : Progressive
Compression mode : Lossy
Bits/(Pixel*Frame) : 0.277
Stream size : 1.20 GiB (83%)
Writing library : XviD 73
Audio #1
ID : 1
Format : AC-3
Format/Info : Audio Coding 3
Mode extension : CM (complete main)
Format settings, Endianness : Big
Codec ID : 2000
Duration : 1h 30mn
Bit rate mode : Constant
Bit rate : 192 Kbps
Channel(s) : 2 channels
Channel positions : Front: L R
Sampling rate : 48.0 KHz
Compression mode : Lossy
Stream size : 124 MiB (8%)
Alignment : Split accross interleaves
Interleave, duration : 42 ms (1.00 video frame)
Interleave, preload duration : 500 ms
Audio #2
ID : 2
Format : AC-3
Format/Info : Audio Coding 3
Mode extension : CM (complete main)
Format settings, Endianness : Big
Codec ID : 2000
Duration : 1h 30mn
Bit rate mode : Constant
Bit rate : 192 Kbps
Channel(s) : 2 channels
Channel positions : Front: L R
Sampling rate : 48.0 KHz
Compression mode : Lossy
Stream size : 124 MiB (8%)
Alignment : Split accross interleaves
Interleave, duration : 42 ms (1.00 video frame)
Interleave, preload duration : 500 ms

Скриншот c названием фильма

Скриншоты

,
,
,


Последний раз редактировалось: UZM (2016-04-10 21:43), всего редактировалось 1 раз

Создавать темы 10-Апр-2016 21:13

[Профиль]  [ЛС] 
Показать сообщения:    
Ответить на тему

Текущее время: 19-Ноя 21:15

Часовой пояс: UTC + 5



Вы не можете начинать темы
Вы не можете отвечать на сообщения
Вы не можете редактировать свои сообщения
Вы не можете удалять свои сообщения
Вы не можете голосовать в опросах
Вы не можете прикреплять файлы к сообщениям
Вы не можете скачивать файлы