Регион 13 (Омар Сункар) [2015, Казахстан, боевик, криминал, HDRip]

Ответить на тему
 

ruhal ®

Стаж: 2 года 4 месяца

Сообщений: 1182

Симпатии: 1836

- -Регион 13- Страна: Казахстан
Жанр: боевик, криминал
Год выпуска: 2015
Продолжительность: 01:35:00-Перевод: Не требуется (Русский язык)
Cубтитры: нет-Режиссер: Омар Сункар-В ролях: Омар Сункар, Мейрамхан Суннатиллаев,
Гани Нуржигитов, Евгения Гуренкова, Арман Ельденбаев, Тахир Ишметов, Мансур Тулешев-Описание: Известный в Южном Казахстане авторитет Багдат по кличке «Багда» получает
от своего давнего друга информацию о готовившихся массовых беспорядках и насилию в регионе.
Он, конечно же, не может остаться в стороне и пытается всеми способами предотвратить возможные события.
Но он даже не подозревает, что за всем этим уже следят сотрудники спецслужб.
Дальнейший ход событий заставляет Багду принять решения, от которых зависят судьбы многих и многих людей.-Качество видео: HDRip
Формат видео: AVI
Видео: Xvid 720x400 (16:9) 24fps
Аудио: Dolby AC3 44100Hz stereo 320kbps-

MediaInfo

General
Complete name : E:\Films\Регион 13 (2015) HDRip.avi
Format : AVI
Format/Info : Audio Video Interleave
File size : 1.36 GiB
Duration : 1h 33mn
Overall bit rate : 2 078 Kbps
Writing application : XviD4PSP 6.0 / 54.29.105
Video
ID : 0
Format : xvid
Codec ID : xvid
Duration : 1h 33mn
Bit rate : 1 667 Kbps
Width : 720 pixels
Height : 400 pixels
Display aspect ratio : 16:9
Frame rate : 24.000 fps
Bits/(Pixel*Frame) : 0.241
Stream size : 1.09 GiB (80%)
Audio
ID : 1
Format : AC-3
Format/Info : Audio Coding 3
Mode extension : CM (complete main)
Format settings, Endianness : Big
Codec ID : 2000
Duration : 1h 33mn
Bit rate mode : Constant
Bit rate : 320 Kbps
Channel(s) : 2 channels
Channel positions : Front: L R
Sampling rate : 44.1 KHz
Bit depth : 16 bits
Compression mode : Lossy
Stream size : 214 MiB (15%)
Alignment : Aligned on interleaves

Скриншот c названием фильма

Скриншоты



Создавать темы 11-Апр-2016 20:30

[Профиль]  [ЛС] 
Показать сообщения:    
Ответить на тему

Текущее время: 21-Авг 07:54

Часовой пояс: UTC + 5



Вы не можете начинать темы
Вы не можете отвечать на сообщения
Вы не можете редактировать свои сообщения
Вы не можете удалять свои сообщения
Вы не можете голосовать в опросах
Вы не можете прикреплять файлы к сообщениям
Вы не можете скачивать файлы