Зеро 2 / Zero II (Эмилис Веливис / Emilis Welyvis) [2010, Литва, триллер, комедия, криминал, BDRip 720p] (VO) (Sub Rus + Original Lit)

Ответить на тему
 

teddi ®

Стаж: 1 год 5 месяцев

Сообщений: 87

Симпатии: 46

Зеро 2 / Zero II
Страна: Литва
Жанр: триллер, комедия, криминал
Год выпуска: 2010
Продолжительность: 01:25:54
Перевод: Профессиональный (одноголосый закадровый)
Cубтитры: русские
Оригинальная аудиодорожка: литовский
Режиссер: Эмилис Веливис / Emilis Welyvis
В ролях: Кестутис Якштас, Рамунас Рудокас, Витаутас Шапранаускас, Аушра Штуките, Инга Янкаускайте, Андрюс Жюраускас, Миндаугас Папинигис, Жемина Ашмонтайте, Донатас Иванаускас, Ауримас Мелисиус, Андрюс Паулавичюс, Кристина Савицките
Описание: Когда криминальный мир сталкивается с шоу-бизнесом, наемные убийцы и приятели Макс и Сильвестр внезапно оказываются вовлеченными в гущу странных событий и драматических перипетий на грани абсурда. Под натиском дешевых интриг и силиконовых грудей они должны выполнить поставленную перед ними задачу - вернуть исчезнувший груз наркотиков и наркокурьера, убить кучу людей и любить опасных женщин.
Доп. информация: Внимание! Под русским переводом в литовском оригинале слышна ненормативная лексика
Качество видео: BDRip 720p
Формат видео: MKV
Видео: AVC, 1280x528, ~4695 kbps, 24 fps
Аудио: AC3, 48 kHz, 192 kbps, 2 ch | Русский
Аудио 2: AC3, 48 kHz, 192 kbps, 2 ch | Литовский
Субтитры: русские (SUB), немецкие (SUB)

MediaInfo

General
Unique ID : 232772174814762231970310072406107746439 (0xAF1E4A488DDF76DB985BCE5471FBF087)
Complete name : E:\Video\ЗЕРО 2 (VO).2010.German.720p.BluRay.x264.mkv
Format : Matroska
Format version : Version 2
File size : 3.05 GiB
Duration : 1h 25mn
Overall bit rate : 5 083 Kbps
Encoded date : UTC 2011-07-16 14:39:26
Writing application : mkvmerge v3.2.0 ('Beginnings') built on Feb 17 2010 12:36:13
Writing library : libebml v0.7.9 + libmatroska v0.8.1
Video
ID : 1
Format : AVC
Format/Info : Advanced Video Codec
Format profile : [email protected]
Format settings, CABAC : Yes
Format settings, ReFrames : 5 frames
Codec ID : V_MPEG4/ISO/AVC
Duration : 1h 25mn
Bit rate : 4 695 Kbps
Width : 1 280 pixels
Height : 528 pixels
Display aspect ratio : 2.40:1
Frame rate mode : Constant
Frame rate : 24.000 fps
Color space : YUV
Chroma subsampling : 4:2:0
Bit depth : 8 bits
Scan type : Progressive
Bits/(Pixel*Frame) : 0.289
Stream size : 2.76 GiB (90%)
Writing library : x264 core 115 r2008 4c552d8
Encoding settings : cabac=1 / ref=5 / deblock=1:0:0 / analyse=0x3:0x133 / me=umh / subme=7 / psy=1 / psy_rd=1.00:0.00 / mixed_ref=1 / me_range=16 / chroma_me=1 / trellis=1 / 8x8dct=1 / cqm=0 / deadzone=21,11 / fast_pskip=0 / chroma_qp_offset=-1 / threads=6 / sliced_threads=0 / nr=0 / decimate=1 / interlaced=0 / bluray_compat=0 / constrained_intra=0 / bframes=3 / b_pyramid=2 / b_adapt=1 / b_bias=0 / direct=3 / weightb=1 / open_gop=0 / weightp=2 / keyint=250 / keyint_min=24 / scenecut=40 / intra_refresh=0 / rc_lookahead=40 / rc=2pass / mbtree=1 / bitrate=4695 / ratetol=1.0 / qcomp=0.60 / qpmin=10 / qpmax=51 / qpstep=4 / cplxblur=20.0 / qblur=0.5 / ip_ratio=1.40 / aq=1:1.00
Language : English
Default : No
Forced : No
Audio #1
ID : 2
Format : AC-3
Format/Info : Audio Coding 3
Mode extension : CM (complete main)
Format settings, Endianness : Big
Codec ID : A_AC3
Duration : 1h 25mn
Bit rate mode : Constant
Bit rate : 192 Kbps
Channel(s) : 2 channels
Channel positions : Front: L R
Sampling rate : 48.0 KHz
Frame rate : 31.250 fps (1536 spf)
Compression mode : Lossy
Delay relative to video : 19ms
Stream size : 118 MiB (4%)
Title : VO
Language : Russian
Default : Yes
Forced : No
Audio #2
ID : 4
Format : AC-3
Format/Info : Audio Coding 3
Mode extension : CM (complete main)
Format settings, Endianness : Big
Codec ID : A_AC3
Duration : 1h 25mn
Bit rate mode : Constant
Bit rate : 192 Kbps
Channel(s) : 2 channels
Channel positions : Front: L R
Sampling rate : 48.0 KHz
Frame rate : 31.250 fps (1536 spf)
Compression mode : Lossy
Delay relative to video : 19ms
Stream size : 118 MiB (4%)
Title : original
Language : Lithuanian
Default : No
Forced : No
Text #1
ID : 3
Format : UTF-8
Codec ID : S_TEXT/UTF8
Codec ID/Info : UTF-8 Plain Text
Title : SUB
Language : Russian
Default : Yes
Forced : No
Text #2
ID : 5
Format : VobSub
Muxing mode : zlib
Codec ID : S_VOBSUB
Codec ID/Info : Picture based subtitle format used on DVDs
Title : SUB
Language : German
Default : No
Forced : No

Скриншот c названием фильма

Скриншоты



Последний раз редактировалось: teddi (2016-04-13 06:32), всего редактировалось 1 раз

Создавать темы 13-Апр-2016 01:47

[Профиль]  [ЛС] 

teddi ®

Стаж: 1 год 5 месяцев

Сообщений: 87

Симпатии: 46

Активней качайте плиз!
А то днем часто свет выключают, да и скорость в Андижане не ахти, надо чтобы побольше сидов было.

Создавать темы 15-Апр-2016 01:18

[Профиль]  [ЛС] 
Показать сообщения:    
Ответить на тему

Текущее время: 22-Сен 02:10

Часовой пояс: UTC + 5



Вы не можете начинать темы
Вы не можете отвечать на сообщения
Вы не можете редактировать свои сообщения
Вы не можете удалять свои сообщения
Вы не можете голосовать в опросах
Вы не можете прикреплять файлы к сообщениям
Вы не можете скачивать файлы