[Enrique Iglesias - Live from Odyssey Arena Belfast, 2007, Великобритания, Pop, DVDRip]

Ответить на тему
 

prince306 ®

Стаж: 2 года

Сообщений: 5

Симпатии: 2

Enrique Iglesias - Live from Odyssey Arena Belfast- -Страна: ВеликобританияЖанр: PopГод выпуска: 2007Продолжительность: 01:00:11-Доп. информация: Выступление Энрике Иглесиаса на арене города Белфаст в Ирландии в 2007 году. Энрике — испанский певец, автор песен, продюсер и актёр. За свою карьеру выпустил более 40 синглов и 9 студийных альбомов, которые 116 раз становились платиновыми, 227 золотыми, а общий объём продаж составляет 100 млн пластинок.-Качество видео: DVDRipФормат видео: AVIВидео: Xvid | 848 x 480 | 30 fps | 1650 KbpsАудио: MP3 | 128 Kbps | 2 channels (L,R) | 48.0 KHz-

〤 MediaInfo 〤


D:\Klip\Zarubej\ENRIQUE IGLESIAS\Enrique Iglesias - Live from Odyssey Arena Belfast (2007)DvdRip.avi
General
Complete name : D:\Klip\Zarubej\ENRIQUE IGLESIAS\Enrique Iglesias - Live from Odyssey Arena Belfast (2007)DvdRip.avi
Format : AVI
Format/Info : Audio Video Interleave
File size : 713 MiB
Duration : 1h 0mn
Overall bit rate : 1 656 Kbps
Writing application : MEncoder dev-SVN-rUNKNOWN-4.1.1
Writing library : MPlayer
Video #0
ID : 0
Format : MPEG-4 Visual
Format profile : Advanced [email protected]
Format settings, BVOP : 2
Format settings, QPel : No
Format settings, GMC : No warppoints
Format settings, Matrix : Default (H.263)
Codec ID : XVID
Codec ID/Hint : XviD
Duration : 1h 0mn
Bit rate : 1 514 Kbps
Width : 848 pixels
Height : 480 pixels
Display aspect ratio : 16:9
Frame rate : 29.970 fps
Color space : YUV
Chroma subsampling : 4:2:0
Bit depth : 8 bits
Scan type : Progressive
Compression mode : Lossy
Bits/(Pixel*Frame) : 0.124
Stream size : 652 MiB (91%)
Writing library : XviD 1.1.2 (UTC 2006-11-01)
Audio #1
ID : 1
Format : MPEG Audio
Format version : Version 1
Format profile : Layer 3
Mode : Joint stereo
Mode extension : MS Stereo
Codec ID : 55
Codec ID/Hint : MP3
Duration : 1h 0mn
Bit rate mode : Constant
Bit rate : 128 Kbps
Channel(s) : 2 channels
Sampling rate : 48.0 KHz
Compression mode : Lossy
Delay relative to video : 33ms
Stream size : 55.1 MiB (8%)
Alignment : Aligned on interleaves
Interleave, duration : 24 ms (0.72 video frame)
Interleave, preload duration : 504 ms
Writing library : LAME3.97 (beta)
-

〤 Треклист 〤

Ring My Bells
Bailamos
Don't Turn Off The Lights
The Rhythm Divine
La Chica de Ayer
Somebody's Me
Tired Of Being Sorry
Do You Know (The Ping Pong Song)
Be With You
Push
Hero
Escape
-

〤 Скриншоты 〤






Создавать темы 13-Апр-2016 12:10

[Профиль]  [ЛС] 
Показать сообщения:    
Ответить на тему

Текущее время: 17-Авг 00:47

Часовой пояс: UTC + 5



Вы не можете начинать темы
Вы не можете отвечать на сообщения
Вы не можете редактировать свои сообщения
Вы не можете удалять свои сообщения
Вы не можете голосовать в опросах
Вы не можете прикреплять файлы к сообщениям
Вы не можете скачивать файлы