Пристанище для потерянных / Mayoiga (Мидзусима Цутому) [12 из 12] [TV] [Без хардсаба] [RUS(int)] [2016 г., HDTVRip, драма, мистика] [720p]

Ответить на тему
 

Fox_M ®

Стаж: 5 лет

Сообщений: 110

Симпатии: 35

Пристанище для потерянных / Mayoiga-
Год выпуска:2016
Страна:Япония
Жанр:драма, мистика
Продолжительность:12 эп. по 25 мин.-Режиссер:Мидзусима Цутому
Студия:Diomedea inc-Перевод:Завхоз
Озвучивание:Trina_D, Ancord, Jade-Описание:
Группа из тридцати человек вместе садится на автобусный тур. Их пункт назначения — покрытая тайной и, возможно, даже не существующая деревенька Нанакимура. В этой деревне обещано утопическое существование, свободное от шор бренного мира... по крайней мере, таковы слухи.
Автобус направляется глубоко в горы, увозя с собой тридцать молодых парней и девушек, в сердцах несущих свои горести и печали, а также — надежду.
Необитаемая деревня, развалившаяся, но почему-то все же сохранившая непрекращающийся, слабый аромат жизни — вот куда прибыли герои, вот чем оказалась Нанакимура. Вот только вся ли это правда о глухой, безлюдной деревеньке, скрытой в горах?-Качество: HDTVRip
Формат видео: MP4
Видео:x264; 1280х720; 23.976fps; ~2000 kbps, 8 bit
Аудио:Aac; 48.0 khz; 2.0ch; ~192kbps-

Подробные тех. данные:


General
Complete name : D:\АНИМЕ\Весна 2016\[AniDub]_Mayoiga_[720p]_[MVO]\[AniDub]_Mayoiga_[01]_[720p_x264_Aac]_[MVO].mp4
Format : MPEG-4
Format profile : Base Media
Codec ID : isom (isom)
File size : 296 MiB
Duration : 24mn 26s
Overall bit rate mode : Variable
Overall bit rate : 1 690 Kbps
Encoded date : UTC 2016-04-03 10:08:30
Tagged date : UTC 2016-04-03 10:08:30
Writing application : Yamb 2.1.0.0 [http://yamb.unite-video.com]
Video
ID : 1
Format : AVC
Format/Info : Advanced Video Codec
Format profile : [email protected]
Format settings, CABAC : Yes
Format settings, ReFrames : 4 frames
Codec ID : avc1
Codec ID/Info : Advanced Video Coding
Duration : 24mn 26s
Bit rate : 1 494 Kbps
Maximum bit rate : 8 917 Kbps
Width : 1 280 pixels
Height : 720 pixels
Display aspect ratio : 16:9
Frame rate mode : Constant
Frame rate : 23.976 (24000/1001) fps
Color space : YUV
Chroma subsampling : 4:2:0
Bit depth : 8 bits
Scan type : Progressive
Bits/(Pixel*Frame) : 0.068
Stream size : 261 MiB (88%)
Writing library : x264 core 148 r2665 a01e339
Encoding settings : cabac=1 / ref=3 / deblock=1:0:0 / analyse=0x1:0x111 / me=hex / subme=7 / psy=1 / psy_rd=1.00:0.00 / mixed_ref=1 / me_range=16 / chroma_me=1 / trellis=1 / 8x8dct=0 / cqm=0 / deadzone=21,11 / fast_pskip=1 / chroma_qp_offset=-2 / threads=12 / lookahead_threads=2 / sliced_threads=0 / nr=0 / decimate=1 / interlaced=0 / bluray_compat=0 / constrained_intra=0 / bframes=3 / b_pyramid=2 / b_adapt=1 / b_bias=0 / direct=1 / weightb=1 / open_gop=0 / weightp=2 / keyint=240 / keyint_min=1 / scenecut=40 / intra_refresh=0 / rc_lookahead=40 / rc=crf / mbtree=1 / crf=20.0 / qcomp=0.60 / qpmin=0 / qpmax=69 / qpstep=4 / ip_ratio=1.40 / aq=1:1.50
Encoded date : UTC 2016-04-01 14:09:55
Tagged date : UTC 2016-04-03 10:08:32
Color range : Limited
Color primaries : BT.709
Transfer characteristics : BT.709
Matrix coefficients : BT.709
Audio
ID : 2
Format : AAC
Format/Info : Advanced Audio Codec
Format profile : LC
Codec ID : 40
Duration : 24mn 26s
Bit rate mode : Variable
Bit rate : 192 Kbps
Maximum bit rate : 196 Kbps
Channel(s) : 2 channels
Channel positions : Front: L R
Sampling rate : 48.0 KHz
Frame rate : 46.875 fps (1024 spf)
Compression mode : Lossy
Stream size : 33.6 MiB (11%)
Language : English
Encoded date : UTC 2016-04-03 10:08:31
Tagged date : UTC 2016-04-03 10:08:32


Последний раз редактировалось: Fox_M (2016-07-04 18:02), всего редактировалось 7 раз(а)

Создавать темы 19-Апр-2016 18:26

[Профиль]  [ЛС] 

Fox_M ®

Стаж: 5 лет

Сообщений: 110

Симпатии: 35

3 серия.

Создавать темы 22-Апр-2016 23:52

[Профиль]  [ЛС] 

Fox_M ®

Стаж: 5 лет

Сообщений: 110

Симпатии: 35

4 серия.

Создавать темы 29-Апр-2016 20:22

[Профиль]  [ЛС] 

Fox_M ®

Стаж: 5 лет

Сообщений: 110

Симпатии: 35

5 серия.

Создавать темы 12-Май-2016 19:45

[Профиль]  [ЛС] 

Fox_M ®

Стаж: 5 лет

Сообщений: 110

Симпатии: 35

6 серия.

Создавать темы 18-Май-2016 22:49

[Профиль]  [ЛС] 

Fox_M ®

Стаж: 5 лет

Сообщений: 110

Симпатии: 35

7-8 серии.

Создавать темы 01-Июн-2016 22:35

[Профиль]  [ЛС] 

Fox_M ®

Стаж: 5 лет

Сообщений: 110

Симпатии: 35

9-12 серии. Конец.

Создавать темы 03-Июл-2016 15:35

[Профиль]  [ЛС] 

Топик был перенесен из форума Аниме онгоинги в форум HD, HDTVRip
[email protected]

Создавать темы 03-Июл-2016 18:05

 
Показать сообщения:    
Ответить на тему

Текущее время: 22-Окт 09:27

Часовой пояс: UTC + 5



Вы не можете начинать темы
Вы не можете отвечать на сообщения
Вы не можете редактировать свои сообщения
Вы не можете удалять свои сообщения
Вы не можете голосовать в опросах
Вы не можете прикреплять файлы к сообщениям
Вы не можете скачивать файлы