Колония Дигнидад / Colonia (Флориан Галленбергер / Florian Gallenberger) [2015, Германия, Люксембург, Франция, триллер, драма, мелодрама, история,, WEB-DLRip] (DVO)

Ответить на тему
 

igor1968 ®

Стаж: 5 лет 6 месяцев

Сообщений: 366

Симпатии: 197

Колония Дигнидад / Colonia
Страна: Германия, Люксембург, Франция
Жанр: триллер, драма, мелодрама, история,
Год выпуска: 2015
Продолжительность: 01:49:32
Перевод: Любительский (двухголосый закадровый)
Cубтитры: нет
Режиссер: Флориан Галленбергер / Florian Gallenberger
В ролях: Эмма Уотсон, Даниэль Брюль, Микаэл Нюквист, Риченда Кэри, Вики Крипс, Джинн Вернер, Джулиан Овенден, Август Цирнер, Мартин Вуттке, Николас Барсофф
Немецкий журналист Даниэль похищен в Чили тайной полицией и после немыслимых пыток отправлен в колонию «Дигнидад» — огромное поселение, выдающее себя за благотворительную коммуну, а на самом деле гнездо нацистов — беглецов из Третьего рейха. Колонию возглавляет бывший офицер вермахта, бесноватый проповедник Пауль Шефер, внушающий пастве пользу умерщвления плоти и бесплатного труда от заката до рассвета. В «Дигнидад» легко попасть, но обратной дороги нет. Здесь Даниэлю предстоит превратиться в раба и «материал» для бесчеловечных экспериментов.
Но подвиги во имя любви совершают не только мужчины. Девушка Даниэля, отважная стюардесса Лена, решает спасти его. В одиночку. Ради любимого она готова на всё и даже больше. Добровольно, под видом послушницы, Лена отправляется в это страшное место…
Доп. информация:- -сценарий Торстен Вензель, Флориан Галленбергер
продюсер Беньямин Херман, Николас Стейл, Кристиан Бекер, ...
оператор Коля Брандт
композитор Андре Дзезюк, Фернандо Веласкес
художник Бернд Лепель, Тобиас Франк, Пабло Маэстре Галли, ...
монтаж Хансйорг Вайссбрих
бюджет
$14 000 000
сборы в России
$82 604
сборы
зрители
Россия 18 тыс.
премьера
13 сентября 2015, ...
премьера (РФ)
31 марта 2016, «Cinema Prestige»-Примечание: Присутствуют вставки голосовой и текстовой рекламы!-Качество видео: WEB-DLRip
Формат видео: AVI
Видео: Xvid 720x304 23.976fps 1702kbps
Аудио: Dolby AC3 48000Hz stereo 192kbps

MediaInfo

General
Complete name : Kolonia.Dagn1dad.2O15.WEB-DLRip.1.46Gb.avi
Format : AVI
Format/Info : Audio Video Interleave
File size : 1.46 GiB
Duration : 1h 49mn
Overall bit rate : 1 904 Kbps
Writing application : VirtualDubMod 1.5.10.2 (build 2540/release)
Writing library : VirtualDubMod build 2540/release
Video
ID : 0
Format : MPEG-4 Visual
Format profile : Advanced [email protected]
Format settings, BVOP : 2
Format settings, QPel : No
Format settings, GMC : No warppoints
Format settings, Matrix : Custom
Codec ID : XVID
Codec ID/Hint : XviD
Duration : 1h 49mn
Bit rate : 1 703 Kbps
Width : 720 pixels
Height : 304 pixels
Display aspect ratio : 2.35:1
Frame rate : 23.976 fps
Color space : YUV
Chroma subsampling : 4:2:0
Bit depth : 8 bits
Scan type : Progressive
Compression mode : Lossy
Bits/(Pixel*Frame) : 0.324
Stream size : 1.30 GiB (89%)
Writing library : XviD 1.2.1 (UTC 2008-12-04)
Audio
ID : 1
Format : AC-3
Format/Info : Audio Coding 3
Mode extension : CM (complete main)
Format settings, Endianness : Big
Codec ID : 2000
Duration : 1h 49mn
Bit rate mode : Constant
Bit rate : 192 Kbps
Channel(s) : 2 channels
Channel positions : Front: L R
Sampling rate : 48.0 KHz
Compression mode : Lossy
Stream size : 150 MiB (10%)
Alignment : Split accross interleaves
Interleave, duration : 42 ms (1.00 video frame)
Interleave, preload duration : 500 ms
Video: Xvid 720x304 23.976fps 1702kbps [V: mpeg4 advanced simple profile, yuv420p, 720x304, 1702 kb/s]
Audio: Dolby AC3 48000Hz stereo 192kbps [A: ac3, 48000 Hz, stereo, 192 kb/s]
- - - -

Создавать темы 20-Апр-2016 18:12

[Профиль]  [ЛС] 
Показать сообщения:    
Ответить на тему

Текущее время: 25-Сен 00:35

Часовой пояс: UTC + 5



Вы не можете начинать темы
Вы не можете отвечать на сообщения
Вы не можете редактировать свои сообщения
Вы не можете удалять свои сообщения
Вы не можете голосовать в опросах
Вы не можете прикреплять файлы к сообщениям
Вы не можете скачивать файлы