Лига Европы 2015-2016 / 1/4 финала / Ответный матч Ливерпуль - Боруссия Дортмунд [2016,Футбол, HDTVRip] (НТВ +)

Ответить на тему
 

ladysco ®

Стаж: 5 лет 1 месяц

Сообщений: 40

Симпатии: 56

Лига Европы 2015-2016 / 1/4 финала
Ответный матч Ливерпуль - Боруссия Дортмунд

Вид спорта: Футбол
Участники: Ливерпуль (Англия) - Боруссия Дортмунд (Германия)
Дата: 14.04.2016
Стадион: Энфилд (Ливерпуль, Англия) , вместимость: 45362
Главный судья: Джюнейт Чакыр (Стамбул, Турция)-Продолжительность: 01:50:32
Язык комментариев: русский (Александр Елагин); интершум
Перевод: Профессиональный (одноголосый, закадровый) НТВ +-Описание: Ответный матч между Ливерпулем и Дортмундской Боруссией. Первая игра закончилась со счетом 1:1
Качество видео: HDTVRip
Формат видео: MKV
Видео: MPEG 1280х720, 25.000 fps, 3 500 kbps, 0.152 bit/pixel
Аудио RUS: AC3, 48 kHz, 2 ch, 128 kbps
Аудио INT: AC3, 48 kHz, 2 ch, 128 kbps

Стартовые составы


Счёт матча

4:3

MediaInfo

Format : Matroska
Format version : Version 2
File size : 2.91 GiB
Duration : 1h 50mn
Overall bit rate : 3 766 Kbps
Encoded date : UTC 2016-04-15T01:27:49Z
Writing application : HandBrake 0.10.5 2016021100
Writing library : Lavf55.12.0 / Lavf55.12.0
Video
ID : 1
Format : AVC
Format/Info : Advanced Video Codec
Format profile : [email protected]
Format settings, CABAC : Yes
Format settings, ReFrames : 4 frames
Codec ID : V_MPEG4/ISO/AVC
Duration : 1h 50mn
Bit rate : 3 500 Kbps
Width : 1 280 pixels
Height : 720 pixels
Display aspect ratio : 16:9
Frame rate mode : Constant
Frame rate : 25.000 fps
Color space : YUV
Chroma subsampling : 4:2:0
Bit depth : 8 bits
Scan type : Progressive
Bits/(Pixel*Frame) : 0.152
Stream size : 2.65 GiB (91%)
Writing library : x264 core 142 r2479 dd79a61
Encoding settings : cabac=1 / ref=1 / deblock=1:0:0 / analyse=0x1:0x111 / me=hex / subme=2 / psy=1 / psy_rd=1.00:0.00 / mixed_ref=0 / me_range=16 / chroma_me=1 / trellis=0 / 8x8dct=0 / cqm=0 / deadzone=21,11 / fast_pskip=1 / chroma_qp_offset=0 / threads=6 / lookahead_threads=2 / sliced_threads=0 / nr=0 / decimate=1 / interlaced=0 / bluray_compat=0 / constrained_intra=0 / bframes=3 / b_pyramid=2 / b_adapt=1 / b_bias=0 / direct=1 / weightb=1 / open_gop=0 / weightp=1 / keyint=250 / keyint_min=25 / scenecut=40 / intra_refresh=0 / rc_lookahead=10 / rc=abr / mbtree=1 / bitrate=3500 / ratetol=1.0 / qcomp=0.60 / qpmin=0 / qpmax=69 / qpstep=4 / vbv_maxrate=20000 / vbv_bufsize=25000 / nal_hrd=none / filler=0 / ip_ratio=1.40 / aq=1:1.00
Default : Yes
Forced : No
Color range : Limited
Color primaries : BT.709
Transfer characteristics : BT.709
Matrix coefficients : BT.709
Audio #1
ID : 2
Format : AC-3
Format/Info : Audio Coding 3
Mode extension : CM (complete main)
Format settings, Endianness : Big
Codec ID : A_AC3
Duration : 1h 50mn
Bit rate mode : Constant
Bit rate : 128 Kbps
Channel(s) : 2 channels
Channel positions : Front: L R
Sampling rate : 48.0 KHz
Frame rate : 31.250 fps (1536 spf)
Compression mode : Lossy
Delay relative to video : -5ms
Stream size : 101 MiB (3%)
Title : Stereo
Language : Russian
Default : Yes
Forced : No
Audio #2
ID : 3
Format : AC-3
Format/Info : Audio Coding 3
Mode extension : CM (complete main)
Format settings, Endianness : Big
Codec ID : A_AC3
Duration : 1h 50mn
Bit rate mode : Constant
Bit rate : 128 Kbps
Channel(s) : 2 channels
Channel positions : Front: L R
Sampling rate : 48.0 KHz
Frame rate : 31.250 fps (1536 spf)
Compression mode : Lossy
Delay relative to video : -5ms
Stream size : 101 MiB (3%)
Title : Stereo
Default : No
Forced : No

Скриншоты

Создавать темы 21-Апр-2016 18:23

[Профиль]  [ЛС] 

eddy.morfy

Стаж: 5 лет 5 месяцев

Сообщений: 31

ladysco, pochemu skorosta net?

Создавать темы 23-Апр-2016 12:38

[Профиль]  [ЛС] 

ladysco ®

Стаж: 5 лет 1 месяц

Сообщений: 40

Симпатии: 56

eddy.morfy, потому что я не могу находиться на раздаче 24 часа в сутки. вот вечером, пожалуйста, качайте

Создавать темы 23-Апр-2016 16:48

[Профиль]  [ЛС] 
Показать сообщения:    
Ответить на тему

Текущее время: 19-Авг 10:41

Часовой пояс: UTC + 5



Вы не можете начинать темы
Вы не можете отвечать на сообщения
Вы не можете редактировать свои сообщения
Вы не можете удалять свои сообщения
Вы не можете голосовать в опросах
Вы не можете прикреплять файлы к сообщениям
Вы не можете скачивать файлы