Наши матери, наши отцы / Unsere Mütter, unsere Väter (Филипп Кадельбах / Philipp Kadelbach) [2013, Германия, Драма, Военный, HDRip] (MVO : Parovozik)

Ответить на тему
 

Nehtez ®

Стаж: 1 год 10 месяцев

Сообщений: 75

Симпатии: 34

Наши матери, наши отцы / Unsere Mütter, unsere Väter
Страна: Германия
Жанр: Драма, Военный
Год выпуска: 2013
Продолжительность: 3 х 1:30:00
Перевод: Любительский (многоголосый закадровый) Доп. инфо о переводе Parovozik
Cубтитры: нет
Режиссер: Филипп Кадельбах / Philipp Kadelbach
В ролях: Фолькер Брух, Том Шиллинг, Катарина Шюттлер, Людвиг Трепте, Мириам Штайн, Марк Вашке, Генриетта Рихтер-Роль, Готц Шуберт, Кристиана Пауль, Сильвестр Грот и др.
Описание: Июнь 41-го года. Пятеро друзей встречаются в маленьком берлинском кафе,чтобы проводить троих из них на Восточный фронт. Они молоды, они считают,что весь мир лежит перед ними, надо только его завоевать. А дальше начинается ад. Ад русской зимы 41-го года и ад Курской битвы, ад концлагеря Заксенхаузен и ад берлинской тюрьмы Шарлоттенбург, ад фронтового госпиталя и ад штрафного батальона вермахта. Они вновь встречаются в этом самом кафе летом 45-го. Только они уже совсем другие.
Качество видео: HDRip
Формат видео: AVI
Видео: 640x352 (1.82:1), 25 fps, XviD build 50 ~941 kbps avg, 0.17 bit/pixel
Аудио: 48 kHz, MPEG Layer 3, 2 ch, ~128.00 kbps avg

MediaInfo

General
Complete name : F:\filmes\Nashy_materi_nashy_otcy\Nashy_materi_nashy_otcy_1.avi
Format : AVI
Format/Info : Audio Video Interleave
File size : 701 MiB
Duration : 1h 30mn
Overall bit rate : 1 080 Kbps
Writing application : VirtualDubMod 1.5.10.3 | www.virtualdub-fr.org || (build 2550/release)
Writing library : VirtualDubMod build 2550/release
Video
ID : 0
Format : MPEG-4 Visual
Format profile : Advanced [email protected]
Format settings, BVOP : Yes
Format settings, QPel : No
Format settings, GMC : No warppoints
Format settings, Matrix : Default (MPEG)
Codec ID : XVID
Codec ID/Hint : XviD
Duration : 1h 30mn
Bit rate : 942 Kbps
Width : 640 pixels
Height : 352 pixels
Display aspect ratio : 16:9
Frame rate : 25.000 fps
Color space : YUV
Chroma subsampling : 4:2:0
Bit depth : 8 bits
Scan type : Progressive
Compression mode : Lossy
Bits/(Pixel*Frame) : 0.167
Stream size : 611 MiB (87%)
Writing library : XviD 1.2.1 (UTC 2008-12-04)
Audio
ID : 1
Format : MPEG Audio
Format version : Version 1
Format profile : Layer 3
Codec ID : 55
Codec ID/Hint : MP3
Duration : 1h 30mn
Bit rate mode : Constant
Bit rate : 128 Kbps
Channel(s) : 2 channels
Sampling rate : 48.0 KHz
Compression mode : Lossy
Stream size : 83.1 MiB (12%)
Alignment : Aligned on interleaves
Interleave, duration : 40 ms (1.00 video frame)
Interleave, preload duration : 504 ms
Writing library : LAME3.98r
Encoding settings : -m s -V 4 -q 2 -lowpass 17 -b 128

Скриншоты



Последний раз редактировалось: Nehtez (2016-04-22 15:47), всего редактировалось 1 раз

Создавать темы 22-Апр-2016 12:03

[Профиль]  [ЛС] 

ferrmassal

Стаж: 4 года 7 месяцев

Сообщений: 9

Спасибо автору, преддверие такое праздника, одно удовольствие смотреть фильмы про ВОВ!

Создавать темы 24-Апр-2016 10:07

[Профиль]  [ЛС] 

umen78

Стаж: 1 год 6 месяцев

Сообщений: 10

Симпатии: 3

встаньте на раздачу, пожалуйста, смотреть охота

Создавать темы 21-Сен-2016 09:32

[Профиль]  [ЛС] 
Показать сообщения:    
Ответить на тему

Текущее время: 17-Окт 23:28

Часовой пояс: UTC + 5



Вы не можете начинать темы
Вы не можете отвечать на сообщения
Вы не можете редактировать свои сообщения
Вы не можете удалять свои сообщения
Вы не можете голосовать в опросах
Вы не можете прикреплять файлы к сообщениям
Вы не можете скачивать файлы