Барса: Больше, чем клуб / Barça Dreams (Жорди Льомпарт) [2015, Испания, Спортивные, Документальные, Зарубежные, HDRip] (MVO)

Ответить на тему
 

aumidbek ®

Стаж: 3 года 9 месяцев

Сообщений: 9

Симпатии: 11

Барса: Больше, чем клуб / Barça Dreams
Страна: Испания
Жанр: Спортивные, Документальные, Зарубежные
Год выпуска: 2015
Продолжительность: 02:02:00
Перевод: Профессиональный (многоголосый закадровый)
Cубтитры: нет
Режиссер: Жорди Льомпарт
В ролях: Хосе Рамон Алечанко, Хосе Мария Бакеро, Рамон Беса, Йохан Кройф, Жауме Дескальс, Карлес Фолгуэра, Эмма Гампер, По Газоль, Хосеп Гвардиола, Хави Эрнандес и другие
Описание: Барса – для многих любителей футбола это слово сейчас ассоциируется с Месси – гениальным, невероятно талантливым футболистом, одним из лучших, а может даже лучшим игроком за всю историю футбола. Те, кто постарше при этом слове сразу же вспомнят таких великолепных игроков, как Хавьер «Хави» Эрнандес и Андрес Иньеста, ставших живыми легендами, посвятившими клубу всю свою жизнь, отдавшими немало сил, чтобы Барса сейчас выглядела такой, какой она есть. Неймар, Луис Суарес, Карлес Пуйоль, Рональдиньо, Луиш Фигу, Ривалду, Патрик Клюйверт, Христо Стоичков, Ромарио, Рональд Куман – далеко не полный список великих игроков, защищавших в своё время цвета «Барселоны» и записавших своё имя в историю мирового футбола. С Барсой связаны имена таких выдающихся тренеров, как Йохан Кройфф, Луи ван Гаал и непревзойденный Хосеп Гвардиола. Но помимо громких имён футболистов, в своё время игравших в команде, у «Барселоны» всегда было то, что всегда поддерживало игроков, позволяя достигать максимальных результатов – это невероятный командный дух и великолепная клубная атмосфера, приумножающая духовные ценности и почитающая традиции, заложенные с самого основания команды.
Доп. информация:
Рейтинги:
IMDb: 7.40 (87)
Кинопоиск: 7.77 (188)
Входит в списки:
Лучшие спортивные фильмы 2015 года (1 место)
Лучшие документальные фильмы 2015 года (7 место)
Лучшие зарубежные фильмы 2015 года (17 место)
Качество видео: HDRip
Формат видео: MP4
Видео: MPEG-4 Visual, 640x354, 16:9, 349 Kbps
Аудио: AAC, 92.8 Kbps, 1 channel, 44.1 KHz

MediaInfo

Format : MPEG-4
Format profile : Base Media
Codec ID : isom
File size : 392 MiB
Duration : 2h 2mn
Overall bit rate : 447 Kbps
Track name/Position : 1
Track name/Total : 0
Recorded date : 2016
Writing application : Lavf57.26.100
Cover : Yes
Video
ID : 1
Format : MPEG-4 Visual
Format profile : [email protected]
Format settings, BVOP : No
Format settings, QPel : No
Format settings, GMC : No warppoints
Format settings, Matrix : Default (H.263)
Codec ID : 20
Duration : 2h 2mn
Duration_LastFrame : -3ms
Bit rate mode : Constant
Bit rate : 349 Kbps
Width : 640 pixels
Height : 354 pixels
Display aspect ratio : 16:9
Original display aspect ratio : 16:9
Frame rate mode : Constant
Frame rate : 24.000 fps
Color space : YUV
Chroma subsampling : 4:2:0
Bit depth : 8 bits
Scan type : Progressive
Compression mode : Lossy
Bits/(Pixel*Frame) : 0.064
Stream size : 307 MiB (78%)
Writing library : Lavc57.27.100
Audio
ID : 2
Format : AAC
Format/Info : Advanced Audio Codec
Format profile : LC
Codec ID : 40
Duration : 2h 2mn
Bit rate mode : Constant
Bit rate : 92.8 Kbps
Channel(s) : 1 channel
Channel positions : Front: C
Sampling rate : 44.1 KHz
Compression mode : Lossy
Stream size : 81.5 MiB (21%)

Скриншоты










Последний раз редактировалось: aumidbek (2016-04-23 21:28), всего редактировалось 3 раз(а)

Создавать темы 23-Апр-2016 16:56

[Профиль]  [ЛС] 

ruhal

Стаж: 2 года 5 месяцев

Сообщений: 1181

Симпатии: 1836

Скриншоты оригинального размера 640x354 залейте

Создавать темы 23-Апр-2016 19:23

[Профиль]  [ЛС] 
Показать сообщения:    
Ответить на тему

Текущее время: 20-Сен 14:19

Часовой пояс: UTC + 5



Вы не можете начинать темы
Вы не можете отвечать на сообщения
Вы не можете редактировать свои сообщения
Вы не можете удалять свои сообщения
Вы не можете голосовать в опросах
Вы не можете прикреплять файлы к сообщениям
Вы не можете скачивать файлы