Слушание / Confirmation (Рик Фамуйива) [2016, США, Драма, история, HDTVRip] (MVO)

Ответить на тему
 

UZM ®

Стаж: 5 лет 5 месяцев

Сообщений: 169

Симпатии: 189

Слушание / Confirmation
Страна: США
Жанр: Драма, история
Год выпуска: 2016
Продолжительность: 01:45:11
Перевод: Профессиональный (многоголосый закадровый)
Cубтитры: нет
Режиссер: Рик Фамуйива / Rick Famuyiwa
В ролях: Керри Вашингтон, Зои Листер Джонс, Эрика Кристенсен, Грэйс Гаммер, Элисон Райт, Эрик Стоунстрит, Джеффри Райт
Описание: Политический скандал 1991 года, когда на слушании по назначению Кларенса Томаса в Верховный суд США, бывшая коллега Анита Хилл обвинила судью в сексуальном домогательстве...
Качество видео: HDTVRip
Формат видео: AVI
Видео: Xvid 720x400 25fps 1591kbps
Аудио: Dolby AC3 48,0Hz 6ch 192kbps (русский)
Аудио 2: Dolby AC3 48,0Hz 6ch 192kbps (английский)

MediaInfo

General
Complete name : D:\Кино\Фильмы 2016\Sly6aHie.2016.HDTVRip.avi
Format : AVI
Format/Info : Audio Video Interleave
File size : 1.46 GiB
Duration : 1h 45mn
Overall bit rate : 1 990 Kbps
Writing application : VirtualDubMod 1.5.10.3 | www.virtualdub-fr.org || (build 2550/release)
Writing library : VirtualDubMod build 2550/release
Video
ID : 0
Format : MPEG-4 Visual
Format profile : Advanced [email protected]
Format settings, BVOP : 2
Format settings, QPel : No
Format settings, GMC : No warppoints
Format settings, Matrix : Default (MPEG)
Codec ID : XVID
Codec ID/Hint : XviD
Duration : 1h 45mn
Bit rate : 1 592 Kbps
Width : 720 pixels
Height : 400 pixels
Display aspect ratio : 16:9
Frame rate : 25.000 fps
Color space : YUV
Chroma subsampling : 4:2:0
Bit depth : 8 bits
Scan type : Progressive
Compression mode : Lossy
Bits/(Pixel*Frame) : 0.221
Stream size : 1.17 GiB (80%)
Writing library : XviD 1.2.1 (UTC 2008-12-04)
Audio #1
ID : 1
Format : AC-3
Format/Info : Audio Coding 3
Mode extension : CM (complete main)
Format settings, Endianness : Big
Codec ID : 2000
Duration : 1h 45mn
Bit rate mode : Constant
Bit rate : 192 Kbps
Channel(s) : 6 channels
Channel positions : Front: L C R, Side: L R, LFE
Sampling rate : 48.0 KHz
Compression mode : Lossy
Stream size : 144 MiB (10%)
Alignment : Split accross interleaves
Interleave, duration : 40 ms (1.00 video frame)
Interleave, preload duration : 500 ms
Audio #2
ID : 2
Format : AC-3
Format/Info : Audio Coding 3
Mode extension : CM (complete main)
Format settings, Endianness : Big
Codec ID : 2000
Duration : 1h 45mn
Bit rate mode : Constant
Bit rate : 192 Kbps
Channel(s) : 2 channels
Channel positions : Front: L R
Sampling rate : 48.0 KHz
Compression mode : Lossy
Stream size : 144 MiB (10%)
Alignment : Split accross interleaves
Interleave, duration : 40 ms (1.00 video frame)
Interleave, preload duration : 500 ms

Скриншот c названием фильма

Скриншоты

,
,
,
,

Создавать темы 24-Апр-2016 20:28

[Профиль]  [ЛС] 
Показать сообщения:    
Ответить на тему

Текущее время: 23-Окт 13:07

Часовой пояс: UTC + 5



Вы не можете начинать темы
Вы не можете отвечать на сообщения
Вы не можете редактировать свои сообщения
Вы не можете удалять свои сообщения
Вы не можете голосовать в опросах
Вы не можете прикреплять файлы к сообщениям
Вы не можете скачивать файлы