Тишина / Hush (Майк Флэнеган) [2016, США, ужасы, триллер, HDRip] (DVO)

Ответить на тему
 

ruhal ®

Стаж: 2 года 7 месяцев

Сообщений: 1181

Симпатии: 1836

- -Тишина / Hush- Страна: США
Жанр: ужасы, триллер
Год выпуска: 2016
Продолжительность: 01:21:32-Перевод: Любительский (одноголосый закадровый)
Cубтитры: нет-Режиссер: Майк Флэнеган-В ролях: Джон Галлахер мл., Кейт Сигел, Майкл Трукко, Саманта Слойан, Эмилия Грейвз-Описание: Молодая писательница Мэдди Янг вынуждена жить в мире вечной тишины после того,
как в подростковом возрасте лишилась слуха. Она поселилась в уединённом домике в глубине лесной чащи,
где на мили вокруг нет ни единой души и живёт там в полном одиночестве и гармонии с собой.
Безопасную тишину нарушает проникший поздно вечером через окно психопат в маске,
выбравший Мэдди в качестве своей очередной жертвы и решивший поиграть с беззащитной девушкой в кошки-мышки.-Качество видео: HDRip
Формат видео: AVI
Видео: Xvid 720x304 25fps 2138kbps
Аудио: MP3 48000Hz stereo 192kbps [datynet]
Аудио 2: MP3 48000Hz stereo 192kbps [Хихидок]
-

MediaInfo

General
Complete name : E:\Films\hush_2016_hdrip.avi
Format : AVI
Format/Info : Audio Video Interleave
Format profile : OpenDML
Format settings : rec
File size : 1.44 GiB
Duration : 1h 21mn
Overall bit rate : 2 527 Kbps
Writing application : AVI-Mux GUI 1.17.8.3, Feb 16 201019:42:50
Video
ID : 0
Format : MPEG-4 Visual
Format profile : Advanced [email protected]
Format settings, BVOP : 2
Format settings, QPel : No
Format settings, GMC : No warppoints
Format settings, Matrix : Default (H.263)
Muxing mode : Packed bitstream
Codec ID : XVID
Codec ID/Hint : XviD
Duration : 1h 21mn
Bit rate : 2 139 Kbps
Width : 720 pixels
Height : 304 pixels
Display aspect ratio : 2.35:1
Frame rate : 25.000 fps
Color space : YUV
Chroma subsampling : 4:2:0
Bit depth : 8 bits
Scan type : Progressive
Compression mode : Lossy
Bits/(Pixel*Frame) : 0.391
Stream size : 1.22 GiB (85%)
Writing library : XviD 66
Audio #1
ID : 1
Format : MPEG Audio
Format version : Version 1
Format profile : Layer 3
Codec ID : 55
Codec ID/Hint : MP3
Duration : 1h 21mn
Bit rate mode : Constant
Bit rate : 192 Kbps
Channel(s) : 2 channels
Sampling rate : 48.0 KHz
Compression mode : Lossy
Stream size : 112 MiB (8%)
Alignment : Aligned on interleaves
Interleave, duration : 373 ms (9.32 video frames)
Interleave, preload duration : 216 ms
Audio #2
ID : 2
Format : MPEG Audio
Format version : Version 1
Format profile : Layer 3
Mode : Joint stereo
Mode extension : MS Stereo
Codec ID : 55
Codec ID/Hint : MP3
Duration : 1h 21mn
Bit rate mode : Constant
Bit rate : 192 Kbps
Channel(s) : 2 channels
Sampling rate : 44.1 KHz
Compression mode : Lossy
Stream size : 112 MiB (8%)
Alignment : Aligned on interleaves
Interleave, duration : 373 ms (9.32 video frames)
Interleave, preload duration : 208 ms
Title : Xixidok
Writing library : LAME3.98.2

Скриншот c названием фильма

Скриншоты




Создавать темы 25-Апр-2016 09:13

[Профиль]  [ЛС] 
Показать сообщения:    
Ответить на тему

Текущее время: 21-Ноя 17:17

Часовой пояс: UTC + 5



Вы не можете начинать темы
Вы не можете отвечать на сообщения
Вы не можете редактировать свои сообщения
Вы не можете удалять свои сообщения
Вы не можете голосовать в опросах
Вы не можете прикреплять файлы к сообщениям
Вы не можете скачивать файлы