Дэдпул / Deadpool (Тим Миллер) [2016, США, Фантастика, боевик, триллер, приключения, комедия, WEB-DLRip] [iTunes]

Страницы :  1, 2  След.

Ответить на тему
 

ruhal ®

Стаж: 2 года 6 месяцев

Сообщений: 1181

Симпатии: 1836

- -Дэдпул / Deadpool- - Страна: США
Жанр: Фантастика, боевик, триллер, приключения, комедия
Год выпуска: 2016
Продолжительность: 01:37:36-Перевод: Профессиональный (дублированный) [iTunes]
Cубтитры: нет-Режиссер: Тим Миллер-В ролях: Райан Рейнольдс, Морена Баккарин, Джина Карано, ТиДжей Миллер,
Эд Скрейн, Рэйчел Шин, Брианна Хилдебранд, Андре Трикоте, Тэйлор Хиксон, Джед Риис-Описание: Уэйд Уилсон — наёмник. Будучи побочным продуктом программы вооружённых сил
под названием «Оружие X», Уилсон приобрёл невероятную силу, проворство и способность к исцелению.
Но страшной ценой: его клеточная структура постоянно меняется, а здравомыслие сомнительно.
Всё, чего Уилсон хочет, — это держаться на плаву в социальной выгребной яме. Но течение в ней слишком быстрое.-Качество видео: WEB-DLRip
Формат видео: AVI
Видео: Xvid 720x304 23.976fps 1406kbps
Аудио: Dolby AC3 48000Hz 6ch 384kbps
-

MediaInfo

General
Complete name : E:\Films\DeadP00LL.2O16.D.WEB-DLRip.14OOMB.avi
Format : AVI
Format/Info : Audio Video Interleave
File size : 1.37 GiB
Duration : 1h 48mn
Overall bit rate : 1 798 Kbps
Writing application : VirtualDubMod 1.5.10.2 (build 2540/release)
Writing library : VirtualDubMod build 2540/release
Video
ID : 0
Format : MPEG-4 Visual
Format profile : Advanced [email protected]
Format settings, BVOP : 2
Format settings, QPel : No
Format settings, GMC : No warppoints
Format settings, Matrix : Default (MPEG)
Codec ID : XVID
Codec ID/Hint : XviD
Duration : 1h 48mn
Bit rate : 1 407 Kbps
Width : 720 pixels
Height : 304 pixels
Display aspect ratio : 2.35:1
Frame rate : 23.976 fps
Color space : YUV
Chroma subsampling : 4:2:0
Bit depth : 8 bits
Scan type : Progressive
Compression mode : Lossy
Bits/(Pixel*Frame) : 0.268
Stream size : 1.07 GiB (78%)
Writing library : XviD 1.2.1 (UTC 2008-12-04)
Audio
ID : 1
Format : AC-3
Format/Info : Audio Coding 3
Mode extension : CM (complete main)
Format settings, Endianness : Big
Codec ID : 2000
Duration : 1h 48mn
Bit rate mode : Constant
Bit rate : 384 Kbps
Channel(s) : 6 channels
Channel positions : Front: L C R, Side: L R, LFE
Sampling rate : 48.0 KHz
Bit depth : 16 bits
Compression mode : Lossy
Stream size : 297 MiB (21%)
Alignment : Split accross interleaves
Interleave, duration : 42 ms (1.01 video frame)
Interleave, preload duration : 500 ms

Скриншот c названием фильма

Скриншоты






Последний раз редактировалось: ruhal (2016-09-02 16:36), всего редактировалось 2 раз(а)

Создавать темы 26-Апр-2016 09:55

[Профиль]  [ЛС] 

proxick

Стаж: 3 года 9 месяцев

Сообщений: 6

Симпатии: 9

Надеюсь жойказино есть, а то без нее скучно смотреть фильм?. ag ag

Создавать темы 27-Апр-2016 08:02

[Профиль]  [ЛС] 

BlackJoker

Стаж: 2 года 2 месяца

Сообщений: 14

Симпатии: 3

Интересное понятие "веселья" однако:) Надеюсь нет этой надоевшей рекламы.

Создавать темы 27-Апр-2016 11:18

[Профиль]  [ЛС] 

Kakcam

Стаж: 6 лет 10 месяцев

Сообщений: 137

Симпатии: 7

Дайте скорости)))

Создавать темы 27-Апр-2016 14:00

[Профиль]  [ЛС] 

ruhal ®

Стаж: 2 года 6 месяцев

Сообщений: 1181

Симпатии: 1836

972848Надеюсь жойказино есть, а то без нее скучно смотреть фильм?.

Создавать темы 28-Апр-2016 10:11

[Профиль]  [ЛС] 

Serge

Стаж: 7 лет 5 месяцев

Сообщений: 42

Симпатии: 1

Ржачный фильмец. Но такое надо смотреть в кинотеатре в 3D. Если уж и дома, то в HD ))

Создавать темы 28-Апр-2016 19:00

[Профиль]  [ЛС] 

dominion69

Стаж: 6 лет 5 месяцев

Сообщений: 324

Симпатии: 7

Подтверждаю. обменял 3000 сидбонусов и ничего не дали. обмен был совершен в 15:07-15-10 по Ташкентскому времени.

Создавать темы 29-Апр-2016 15:12

[Профиль]  [ЛС] 

жавохир

Стаж: 7 лет 2 месяца

Сообщений: 20

Симпатии: 4

972992Подтверждаю. обменял 3000 сидбонусов и ничего не дали. обмен был совершен в 15:07-15-10 по Ташкентскому времени.
ПРИВЫКАЙ, ДРУГ!!! :)

Создавать темы 02-Май-2016 14:28

[Профиль]  [ЛС] 

Valey

Стаж: 4 года 8 месяцев

Сообщений: 12

Симпатии: 2

дайте скорости

Создавать темы 04-Май-2016 02:04

[Профиль]  [ЛС] 

Сергей

Стаж: 1 год 5 месяцев

Сообщений: 45

Симпатии: 22

быстро скачал, буквально минут за 40

Создавать темы 06-Май-2016 17:33

[Профиль]  [ЛС] 

Powered by GMC

Стаж: 2 года

Сообщений: 202

Симпатии: 31

ruhal он это спец делает! не обрашай таким внимание!!!! пусть говорять! не нравится не скачайте! уж скачали уже!

Создавать темы 06-Май-2016 19:43

[Профиль]  [ЛС] 

killer_said

Стаж: 6 лет 8 месяцев

Сообщений: 183

Симпатии: 54

А мне эта красавица понравилась, хочу чтоб она на втором дедпуле тоже снялась ;)

Создавать темы 07-Май-2016 12:31

[Профиль]  [ЛС] 

aziko

Стаж: 6 лет 6 месяцев

Сообщений: 47

Симпатии: 7

973178Перевод: Профессиональный (дублированный)
не ври бро!!! там же ппц дуюляж
да ты был прав! сори
дубляж норм )) спс за труд!!!

Создавать темы 08-Май-2016 16:49

[Профиль]  [ЛС] 

aziko

Стаж: 6 лет 6 месяцев

Сообщений: 47

Симпатии: 7

не туда ответил ))) если можно удалите

Создавать темы 08-Май-2016 16:52

[Профиль]  [ЛС] 

BrBenjamiN

Стаж: 6 лет 5 месяцев

Сообщений: 25

Симпатии: 1

хорошо бы посмотреть на FULL HD или хотя бы HD

Создавать темы 13-Май-2016 01:36

[Профиль]  [ЛС] 
Показать сообщения:    
Ответить на тему

Текущее время: 23-Окт 13:11

Часовой пояс: UTC + 5



Вы не можете начинать темы
Вы не можете отвечать на сообщения
Вы не можете редактировать свои сообщения
Вы не можете удалять свои сообщения
Вы не можете голосовать в опросах
Вы не можете прикреплять файлы к сообщениям
Вы не можете скачивать файлы