Mc Doni feat Kristina Si - Султан [2015, Россия, Hip Hop, HDRip]

Ответить на тему
 

ИЛЬЯС АЛЛАЯРОВ ®

Стаж: 2 года 6 месяцев

Сообщений: 13

Симпатии: 2

Mc Doni feat Kristina Si - Султан
Страна: Россия
Жанр: Hip Hop
Год выпуска: 2015
Продолжительность: 00:02:53
Качество видео: HDRip
Формат видео: AVI
Видео: MPEG4 Video (H264) 1920x1080 25fps 8009kbps
Аудио: MP3 44100Hz stereo 192kbps

MediaInfo

Format : AVI
Format/Info : Audio Video Interleave
File size : 169 MiB
Duration : 2mn 53s
Overall bit rate : 8 205 Kbps
Writing application : Lavf51.12.1
Video
ID : 0
Format : AVC
Format/Info : Advanced Video Codec
Format profile : [email protected]
Format settings, CABAC : No
Format settings, ReFrames : 1 frame
Format settings, GOP : M=1, N=12
Codec ID : H264
Duration : 2mn 52s
Bit rate : 8 008 Kbps
Width : 1 920 pixels
Height : 1 080 pixels
Display aspect ratio : 16:9
Frame rate mode : Variable
Frame rate : 25.000 fps
Color space : YUV
Chroma subsampling : 4:2:0
Bit depth : 8 bits
Scan type : Progressive
Bits/(Pixel*Frame) : 0.154
Stream size : 165 MiB (98%)
Audio
ID : 1
Format : MPEG Audio
Format version : Version 1
Format profile : Layer 3
Mode : Joint stereo
Mode extension : MS Stereo
Codec ID : 55
Codec ID/Hint : MP3
Duration : 2mn 53s
Bit rate mode : Constant
Bit rate : 192 Kbps
Channel(s) : 2 channels
Sampling rate : 44.1 KHz
Compression mode : Lossy
Stream size : 3.96 MiB (2%)
Alignment : Aligned on interleaves
Interleave, duration : 26 ms (0.65 video frame)
Interleave, preload duration : 26 ms
Writing library : LAME3.97

Скриншоты



Последний раз редактировалось: ИЛЬЯС АЛЛАЯРОВ (2016-04-27 09:45), всего редактировалось 1 раз

Создавать темы 26-Апр-2016 23:04

[Профиль]  [ЛС] 
Показать сообщения:    
Ответить на тему

Текущее время: 21-Ноя 07:24

Часовой пояс: UTC + 5



Вы не можете начинать темы
Вы не можете отвечать на сообщения
Вы не можете редактировать свои сообщения
Вы не можете удалять свои сообщения
Вы не можете голосовать в опросах
Вы не можете прикреплять файлы к сообщениям
Вы не можете скачивать файлы