Барса: Больше, чем клуб / Barça Dreams (Жорди Льомпарт) [2015, Испания, Спортивные, Документальные, Зарубежные, HDRip] (MVO)

Ответить на тему
 

virus-leo.uz ®

Стаж: 1 год 9 месяцев

Сообщений: 14

Симпатии: 7

Барса: Больше, чем клуб / Barça Dreams
Страна: Испания
Жанр: Спортивные, Документальные, Зарубежные
Год выпуска: 2015
Продолжительность: 02:02:47
Перевод: Профессиональный (многоголосый закадровый)
Cубтитры: нет
Режиссер: Жорди Льомпарт
В ролях: Хосе Рамон Алечанко, Хосе Мария Бакеро, Рамон Беса, Йохан Кройф, Жауме Дескальс, Карлес Фолгуэра, Эмма Гампер, По Газоль, Хосеп Гвардиола, Хави Эрнандес и другие
Описание: Барса – для многих любителей футбола это слово сейчас ассоциируется с Месси – гениальным, невероятно талантливым футболистом, одним из лучших, а может даже лучшим игроком за всю историю футбола. Те, кто постарше при этом слове сразу же вспомнят таких великолепных игроков, как Хавьер «Хави» Эрнандес и Андрес Иньеста, ставших живыми легендами, посвятившими клубу всю свою жизнь, отдавшими немало сил, чтобы Барса сейчас выглядела такой, какой она есть. Неймар, Луис Суарес, Карлес Пуйоль, Рональдиньо, Луиш Фигу, Ривалду, Патрик Клюйверт, Христо Стоичков, Ромарио, Рональд Куман – далеко не полный список великих игроков, защищавших в своё время цвета «Барселоны» и записавших своё имя в историю мирового футбола. С Барсой связаны имена таких выдающихся тренеров, как Йохан Кройфф, Луи ван Гаал и непревзойденный Хосеп Гвардиола. Но помимо громких имён футболистов, в своё время игравших в команде, у «Барселоны» всегда было то, что всегда поддерживало игроков, позволяя достигать максимальных результатов – это невероятный командный дух и великолепная клубная атмосфера, приумножающая духовные ценности и почитающая традиции, заложенные с самого основания команды
Доп. информация: Рейтинги:
IMDb: 7.40 (87)
Кинопоиск: 7.77 (188)
Качество видео: HDRip
Формат видео: AVI
Видео: Video: Xvid 720x400 24fps 1310kbps
Аудио: Audio: Dolby AC3 48000Hz 6ch 384kbps

MediaInfo

General
Complete name : D:\кино\2014-2015\Barsa.2015.P.HDRip.1.46GB.avi
Format : AVI
Format/Info : Audio Video Interleave
File size : 1.46 GiB
Duration : 2h 2mn
Overall bit rate : 1 704 Kbps
Writing application : VirtualDubMod 1.5.10.2 (build 2540/release)
Writing library : VirtualDubMod build 2540/release
Video
ID : 0
Format : MPEG-4 Visual
Format profile : Advanced [email protected]
Format settings, BVOP : 2
Format settings, QPel : No
Format settings, GMC : No warppoints
Format settings, Matrix : Default (MPEG)
Codec ID : XVID
Codec ID/Hint : XviD
Duration : 2h 2mn
Bit rate : 1 310 Kbps
Width : 720 pixels
Height : 400 pixels
Display aspect ratio : 16:9
Frame rate : 24.000 fps
Color space : YUV
Chroma subsampling : 4:2:0
Bit depth : 8 bits
Scan type : Progressive
Compression mode : Lossy
Bits/(Pixel*Frame) : 0.190
Stream size : 1.12 GiB (77%)
Writing library : XviD 1.2.1 (UTC 2008-12-04)
Audio
ID : 1
Format : AC-3
Format/Info : Audio Coding 3
Mode extension : CM (complete main)
Format settings, Endianness : Big
Codec ID : 2000
Duration : 2h 2mn
Bit rate mode : Constant
Bit rate : 384 Kbps
Channel(s) : 6 channels
Channel positions : Front: L C R, Side: L R, LFE
Sampling rate : 48.0 KHz
Compression mode : Lossy
Stream size : 337 MiB (23%)
Alignment : Split accross interleaves
Interleave, duration : 42 ms (1.00 video frame)
Interleave, preload duration : 500 ms

Скриншоты



Последний раз редактировалось: virus-leo.uz (2016-04-28 08:04), всего редактировалось 2 раз(а)

Создавать темы 27-Апр-2016 10:02

[Профиль]  [ЛС] 

inkus

Стаж: 7 лет 5 месяцев

Сообщений: 50

Симпатии: 39

скажите а раздача вообще планируется? уже сколько времени стоит на 33 %. стоит ждать или можно удалять?

Создавать темы 14-Июн-2016 23:17

[Профиль]  [ЛС] 
Показать сообщения:    
Ответить на тему

Текущее время: 18-Окт 18:05

Часовой пояс: UTC + 5



Вы не можете начинать темы
Вы не можете отвечать на сообщения
Вы не можете редактировать свои сообщения
Вы не можете удалять свои сообщения
Вы не можете голосовать в опросах
Вы не можете прикреплять файлы к сообщениям
Вы не можете скачивать файлы