Воины света / Daybreakers (Майкл Спириг,Питер Спириг / Michael Spierig, Peter Spierig) [2009, Австралия, США, фантастика, антиутопия, боевик, HDRip-AVC] (Dub)

Ответить на тему
 

эми ®

Стаж: 1 год 10 месяцев

Сообщений: 8

Симпатии: 2

Воины света / Daybreakers
Страна: Австралия, США
Жанр: фантастика, антиутопия, боевик
Год выпуска: 2009
Продолжительность: 01:37:49
Перевод: Профессиональный (дублированный)
Cубтитры: нет
Режиссер: Майкл Спириг,Питер Спириг / Michael Spierig, Peter Spierig
В ролях:
Итан Хоук
Уиллем Дефо
Сэм Нилл
Описание: 2019 год. Прошло 10 лет с начала глобальной эпидемии, превратившей большинство людей в вампиров. Остатки необращённых людей составляют 5 % от прежней популяции человечества, которое теперь является источником крови для вампиров и находится на грани исчезновения. Безмятежное будущее не светит, впрочем, и кровососам: в условиях растущего дефицита крови они вынуждены спешно искать её искусственный заменитель. Учёные-вампиры вынуждены спешить, так как запасов крови осталось лишь на месяц, в городах царит голод, а оставшиеся без крови вампиры быстро деградируют. В это время идёт постоянная охота на оставшихся людей. Люди всё ещё ищут способ противостоять вампирам...
Качество видео: HDRip-AVC
Формат видео: MKV
Видео: MPEG4 Video (H264) 1280x544 23.976fps
Аудио: Dolby AC3 48000Hz stereo 448kbps

MediaInfo

Unique ID : 218709035668722509105970385696479864561 (0xA489D3FDB8E7DD22A1D0A537CBF166F1)
Complete name :\Войны света\voinyi-sveta-daybreakers-2009.mkv
Format : Matroska
Format version : Version 2
File size : 4.15 GiB
Duration : 1h 37mn
Overall bit rate : 6 070 Kbps
Movie name : Daybreakers (2009) - Release for HDCLUB
Encoded date : UTC 2010-08-17 07:21:14
Writing application : mkvmerge v3.2.0 ('Beginnings') built on Feb 12 2010 16:46:17
Writing library : libebml v0.7.9 + libmatroska v0.8.1
Video
ID : 1
Format : AVC
Format/Info : Advanced Video Codec
Format profile : [email protected]
Format settings, CABAC : Yes
Format settings, ReFrames : 10 frames
Codec ID : V_MPEG4/ISO/AVC
Duration : 1h 37mn
Bit rate : 5 625 Kbps
Width : 1 280 pixels
Height : 544 pixels
Display aspect ratio : 2.35:1
Frame rate mode : Constant
Frame rate : 23.976 fps
Color space : YUV
Chroma subsampling : 4:2:0
Bit depth : 8 bits
Scan type : Progressive
Bits/(Pixel*Frame) : 0.337
Stream size : 3.76 GiB (91%)
Title : Release for HDCLUB
Writing library : x264 core 94 r1583 7608d73
Encoding settings : cabac=1 / ref=10 / deblock=1:-3:-3 / analyse=0x3:0x113 / me=tesa / subme=9 / psy=1 / psy_rd=0.90:0.00 / mixed_ref=1 / me_range=16 / chroma_me=1 / trellis=2 / 8x8dct=1 / cqm=0 / deadzone=21,11 / fast_pskip=0 / chroma_qp_offset=-2 / threads=12 / sliced_threads=0 / nr=0 / decimate=0 / interlaced=0 / constrained_intra=0 / bframes=7 / b_pyramid=2 / b_adapt=2 / b_bias=0 / direct=3 / weightb=1 / weightp=2 / keyint=250 / keyint_min=25 / scenecut=40 / intra_refresh=0 / rc=2pass / mbtree=0 / bitrate=5625 / ratetol=1.0 / qcomp=0.60 / qpmin=10 / qpmax=51 / qpstep=4 / cplxblur=20.0 / qblur=0.5 / ip_ratio=1.40 / pb_ratio=1.30 / aq=1:0.60
Language : English
Default : No
Forced : No
Audio
ID : 2
Format : AC-3
Format/Info : Audio Coding 3
Mode extension : CM (complete main)
Format settings, Endianness : Big
Codec ID : A_AC3
Duration : 1h 37mn
Bit rate mode : Constant
Bit rate : 448 Kbps
Channel(s) : 2 channels
Channel positions : Front: L R
Sampling rate : 48.0 KHz
Bit depth : 16 bits
Compression mode : Lossy
Stream size : 313 MiB (7%)
Title : AC3 5.1 @ 1536 kbps - Дублированный
Language : Russian
Default : Yes
Forced : No

Скриншот c названием фильма

Скриншоты

[





Последний раз редактировалось: эми (2016-04-30 15:33), всего редактировалось 3 раз(а)

Создавать темы 29-Апр-2016 17:04

[Профиль]  [ЛС] 

ruhal

Стаж: 2 года 6 месяцев

Сообщений: 1181

Симпатии: 1836

Скриншоты залейте оригинального размера 1280x544!
ps. Незачем качать картинки с сети, сделать скриншоты же довольно просто

Создавать темы 29-Апр-2016 18:37

[Профиль]  [ЛС] 

эми ®

Стаж: 1 год 10 месяцев

Сообщений: 8

Симпатии: 2

ок,исправила

Создавать темы 29-Апр-2016 20:50

[Профиль]  [ЛС] 
Показать сообщения:    
Ответить на тему

Текущее время: 22-Окт 05:54

Часовой пояс: UTC + 5



Вы не можете начинать темы
Вы не можете отвечать на сообщения
Вы не можете редактировать свои сообщения
Вы не можете удалять свои сообщения
Вы не можете голосовать в опросах
Вы не можете прикреплять файлы к сообщениям
Вы не можете скачивать файлы