Девушка из Дании / The Danish Girl (Том Хупер / Tom Hooper) [2015, Великобритания, США, Бельгия, Дания, Германия, драма, мелодрама, биография, DVDRip] (Dub)

Ответить на тему
 

ladysco ®

Стаж: 5 лет 3 месяца

Сообщений: 40

Симпатии: 56

Девушка из Дании / The Danish Girl-«Find the courage to be yourself»- Страна: Великобритания, США, Бельгия, Дания, Германия
Жанр: драма, мелодрама, биография
Год выпуска: 2015
Продолжительность: 01:59:38
Перевод: Профессиональный (дублированный)
Cубтитры: нет
Режиссер: Том Хупер / Tom Hooper
В ролях: Эдди Редмэйн, Алисия Викандер, Эмбер Хёрд Депп, Эмиральд Феннел, Маттиас Шонартс, Бен Уишоу, Себастьян Кох, Грэхэм Рут, Косима Шоу, Виктория Эмсли, Туссе Сильберг
Описание: Действие происходит в 1920-х годах в Копенгагене. Иллюстратор и художник Герда Вегенер просит своего мужа Эйнара Вегенера попозировать в качестве женской модели. Портреты приобретают популярность и Герда продолжает писать картины со своим мужем в качестве женщины. Эйнару нравится собственная женская внешность и он начинает жить под именем Лили Эльбе. Впоследствии Эльбе становится первым человеком, прошедшим хирургическую коррекцию пола.-Возраст: зрителям, достигшим 18 лет
Рейтинг MPAA: лицам до 17 лет обязательно присутствие взрослого-
Качество видео: DVDRip
Формат видео: AVI
Видео: XviD, 704x384, 23.976 fps, 1274 kbps avg, 0.197 bit/pixel
Аудио: AC3, 48 kHz, 6 ch, 448 kbps

MediaInfo

Format : AVI
Format/Info : Audio Video Interleave
File size : 1.45 GiB
Duration : 1h 59mn
Overall bit rate : 1 731 Kbps
Writing application : VirtualDubMod 1.5.10.2 (build 2540/release)
Writing library : VirtualDubMod build 2540/release
Video
ID : 0
Format : MPEG-4 Visual
Format profile : Advanced [email protected]
Format settings, BVOP : 1
Format settings, QPel : No
Format settings, GMC : No warppoints
Format settings, Matrix : Custom
Codec ID : XVID
Codec ID/Hint : XviD
Duration : 1h 59mn
Bit rate : 1 274 Kbps
Width : 704 pixels
Height : 384 pixels
Display aspect ratio : 1.85:1
Frame rate : 23.976 (23976/1000) fps
Color space : YUV
Chroma subsampling : 4:2:0
Bit depth : 8 bits
Scan type : Progressive
Compression mode : Lossy
Bits/(Pixel*Frame) : 0.197
Stream size : 1.06 GiB (74%)
Writing library : XviD 73
Audio
ID : 1
Format : AC-3
Format/Info : Audio Coding 3
Mode extension : CM (complete main)
Format settings, Endianness : Big
Codec ID : 2000
Duration : 1h 59mn
Bit rate mode : Constant
Bit rate : 448 Kbps
Channel(s) : 6 channels
Channel positions : Front: L C R, Side: L R, LFE
Sampling rate : 48.0 KHz
Frame rate : 31.250 fps (1536 spf)
Compression mode : Lossy
Stream size : 383 MiB (26%)
Alignment : Split accross interleaves
Interleave, duration : 42 ms (1.00 video frame)
Interleave, preload duratio : 500 ms

Скриншоты

Создавать темы 01-Май-2016 15:30

[Профиль]  [ЛС] 

Muhammadamin

Стаж: 5 лет 8 месяцев

Сообщений: 4

филм как

Комментарий от ruhal


О том как мальчик стал девочкой

Создавать темы 16-Май-2016 14:46

[Профиль]  [ЛС] 
Показать сообщения:    
Ответить на тему

Текущее время: 21-Окт 02:49

Часовой пояс: UTC + 5



Вы не можете начинать темы
Вы не можете отвечать на сообщения
Вы не можете редактировать свои сообщения
Вы не можете удалять свои сообщения
Вы не можете голосовать в опросах
Вы не можете прикреплять файлы к сообщениям
Вы не можете скачивать файлы