Каждому своё / Everybody Wants Some!! (Ричард Линклейтер) [2016, США, Комедия, WEB-DLRip] [iTunes] [Original Eng]

Ответить на тему
 

ruhal ®

Стаж: 2 года 4 месяца

Сообщений: 1182

Симпатии: 1836

- -Каждому своё / Everybody Wants Some!!- Страна: США
Жанр: Комедия
Год выпуска: 2016
Продолжительность: 01:51:51-Перевод: Профессиональный (дублированный) iTunes
Cубтитры: нет-Оригинальная аудиодорожка: английский-Режиссер: Ричард Линклейтер-В ролях: Блейк Дженнер, Джастон Стрит, Райан Гузман, Тайлер Хэклин, Уайатт Расселл,
Глен Пауэлл, Темпл Бэйкер, Дж. Куинтон Джонсон, Уилл Бриттейн, Кортни Тейлор-Описание: Сексуальная революция и любовь, пьяные тусовки и травка, брендовые шмотки и топовая музыка…
Первокурсник Джейк получает комнату в общежитии колледжа и погружается в порочный водоворот беззаботной жизни Америки 80-х.
Он впервые познает вкус свободы и взрослой жизни, пока даже не задумываясь о последствиях.-Качество видео: WEB-DLRip
Формат видео: AVI
Видео: Xvid 720x384 25fps 1841kbps
Аудио: Dolby AC3 48000Hz 6ch 384kbps[Rus]
Аудио 2: Dolby AC3 48000Hz 6ch 384kbps[Eng]
-

MediaInfo

General
Complete name : E:\Films\KaGDoMu.Svoio.2O16.D.WEB-DLRip.21OOMB.avi
Format : AVI
Format/Info : Audio Video Interleave
Format profile : OpenDML
File size : 2.05 GiB
Duration : 1h 51mn
Overall bit rate : 2 629 Kbps
Writing application : VirtualDubMod 1.5.10.2 (build 2540/release)
Writing library : VirtualDubMod build 2540/release
Video
ID : 0
Format : MPEG-4 Visual
Format profile : Advanced [email protected]
Format settings, BVOP : 2
Format settings, QPel : No
Format settings, GMC : No warppoints
Format settings, Matrix : Default (MPEG)
Codec ID : XVID
Codec ID/Hint : XviD
Duration : 1h 51mn
Bit rate : 1 842 Kbps
Width : 720 pixels
Height : 384 pixels
Display aspect ratio : 1.85:1
Frame rate : 25.000 fps
Color space : YUV
Chroma subsampling : 4:2:0
Bit depth : 8 bits
Scan type : Progressive
Compression mode : Lossy
Bits/(Pixel*Frame) : 0.266
Stream size : 1.44 GiB (70%)
Writing library : XviD 1.2.1 (UTC 2008-12-04)
Audio #1
ID : 1
Format : AC-3
Format/Info : Audio Coding 3
Mode extension : CM (complete main)
Format settings, Endianness : Big
Codec ID : 2000
Duration : 1h 51mn
Bit rate mode : Constant
Bit rate : 384 Kbps
Channel(s) : 6 channels
Channel positions : Front: L C R, Side: L R, LFE
Sampling rate : 48.0 KHz
Bit depth : 16 bits
Compression mode : Lossy
Delay relative to video : 8ms
Stream size : 307 MiB (15%)
Alignment : Split accross interleaves
Interleave, duration : 40 ms (1.00 video frame)
Interleave, preload duration : 500 ms
Audio #2
ID : 2
Format : AC-3
Format/Info : Audio Coding 3
Mode extension : CM (complete main)
Format settings, Endianness : Big
Codec ID : 2000
Duration : 1h 51mn
Bit rate mode : Constant
Bit rate : 384 Kbps
Channel(s) : 6 channels
Channel positions : Front: L C R, Side: L R, LFE
Sampling rate : 48.0 KHz
Bit depth : 16 bits
Compression mode : Lossy
Delay relative to video : 8ms
Stream size : 307 MiB (15%)
Alignment : Split accross interleaves
Interleave, duration : 40 ms (1.00 video frame)
Interleave, preload duration : 500 ms

Скриншоты



Создавать темы 01-Май-2016 19:56

[Профиль]  [ЛС] 

totsamiy

Стаж: 5 лет 2 месяца

Сообщений: 145

Симпатии: 22

KP: 7.005 (1312)
IMDb: 8.00 (2811)
Качнем, спасибо за релиз!

Создавать темы 02-Май-2016 08:37

[Профиль]  [ЛС] 

UZM

Стаж: 5 лет 2 месяца

Сообщений: 169

Симпатии: 189

Мистер ruhal прокоментируйте ваши дейстивия на счёт моей раздачи.
Зачем в архив за что? UZM. Ведь и моя раздача профи (полное дублирование) чистый звук.
Дайте народу выбор и все.

Создавать темы 02-Май-2016 23:14

[Профиль]  [ЛС] 

ruhal ®

Стаж: 2 года 4 месяца

Сообщений: 1182

Симпатии: 1836

Ваша раздача была временная и при появлении более качественного (лицензии) релиза она перешла в архив. Это нормальное явление. Темы не засоряются. Если вы зарелизите лицензию, а мой скажем релиз будет с чистым звуком я поступлю точно также

Создавать темы 03-Май-2016 02:35

[Профиль]  [ЛС] 
Показать сообщения:    
Ответить на тему

Текущее время: 17-Авг 14:49

Часовой пояс: UTC + 5



Вы не можете начинать темы
Вы не можете отвечать на сообщения
Вы не можете редактировать свои сообщения
Вы не можете удалять свои сообщения
Вы не можете голосовать в опросах
Вы не можете прикреплять файлы к сообщениям
Вы не можете скачивать файлы