Игра престолов / Game of Thrones / Сезон 6, Эпизоды 10 (Алан Тейлор, Дэвид Наттер, Алекс Грейвз) [2016 г., США, фэнтези, драма, приключения, WEB-DL SD (480p)] MVO (LostFilm) + DUB (Amedia - Kravec) + Original + SUB (rus,eng)

Ответить на тему
 

Mamutov ®

Стаж: 4 года 11 месяцев

Сообщений: 255

Симпатии: 144

---Игра престолов / Game of Thrones  -Год выпуска: 2016
Страна: США
Жанр: фэнтези, драма, приключения
Продолжительность: 56 мин.-Перевод: Профессиональный (многоголосый закадровый)
Русские субтитры: есть
Режиссёр: Алан Тейлор, Дэвид Наттер, Алекс Грейвз
Сценарий: Дэвид Бениофф, Джордж Р.Р. Мартин, Д.Б. Уайсс
Продюсер: Дэвид Бениофф, Д.Б. Уайсс, Джордж Р.Р. Мартин
Оператор: Анетт Хаелльмигк, Джонатан Фриман, Роберт МакЛаклен
Композитор: Рамин Джавади
Художник: Дебора Райли, Джемма Джексон, Эшли Джефферс
Монтаж: Фрэнсис Паркер, Кэти Вейланд, Орал Норри Оттей-В ролях: Лена Хиди, Питер Динклэйдж, Мишель Фэйрли, Эмилия Кларк, Кит Харингтон, Николай Костер-Валдау, Иэн Глен, Эйден Гиллен, Элфи Оуэн-Аллен, Мэйси Уильямс, Софи Тернер, Сибель Кекилли, Джеймс Космо, Стивен Диллэйн, Гетин Энтони, Гвендолин Кристи, Натали Дормер-Описание: «Игра престолов» новый сериал HBO, основанный на бестселлерах Джорджа Р.Р. Мартина. В мире, где лето и зимы длятся десятилетиями, на кону корона Вестероса. Предательство, похоть, интриги и сверхъестественные силы сотрясают все четыре стороны Королевства — от плетущего интриги юга, диких восточных земель, до замерзшего севера и древней Стены, что защищает королевство от тьмы за нею. Короли и королевы, рыцари и мятежники, лжецы и благородные люди борются за власть в кровавом сражении за Железный Трон.
Сюжет основан на цикле романов Джорджа Мартина «Песнь Льда и Огня». Каждой книге гепталогии — из планируемых семи книг на 2016 год опубликовано пять — соответствует один сезон сериала. Однако третий роман саги — «Буря мечей» — разбит на 2 сезона, третий и четвёртый соответственно. Четвёртый и пятый романы саги — «Пир стервятников» и «Танец с драконами» — являются основой пятого сезона сериала. Шестой роман саги — «Ветра зимы» — также разбит на 2 сезона, шестой и седьмой соответственно, несмотря на то, что роман на момент 2016 года ещё не завершён (Джордж Мартин уверен в том, что шестая книга выйдет до того, как сериал опередит книжную серию окончательно, то есть до премьеры седьмого сезона). Черновой вариант седьмого романа саги — «Мечта о весне» — будет экранизирован в восьмом сезоне, который является последним.-Качество исходника: WEB-DL 480p
Качество: WEB-DL
Тип: 480p
Контейнер: m4v
Аудио кодек: AC3
Видео: 640 x 478 at 23.976 fps, MPEG-4 AVC, ~1500 kbps avg
Аудио#1: Russian: AAC ADTS, AAC, 2 channels, 44,1 kHz, ААС, VBR: 128,00 kbps |Многоголосый закадровый, LostFilm|
Аудио#2: Russian: AAC ADTS, AAC, 2 channels, 44,1 kHz, ААС, VBR: 128,00 kbps |Многоголосый закадровый, Amedia - Kravec|
Аудио#3: English: AAC ADTS, AAC, 2 channels, 44,1 kHz, ААС, VBR: 128,00 kbps
Субтитры №1: Russian: Tx3g |Amedia|
Субтитры №2: English: Tx3g |CC|

MediaInfo

Общее
Полное имя                               : 01 The Red Woman.m4v
Формат                                   : MPEG-4
Профиль формата                          : Apple audio with iTunes info
Идентификатор кодека                     : M4A
Размер файла                             : 663 Мбайт
Продолжительность                        : 50 м.
Режим общего битрейта                    : Переменный
Общий поток                              : 1854 Кбит/сек
Коллекция                                : Game of Thrones
Сезон                                    : 6
Альбом                                   : Game of Thrones, Season 6
Альбом/Исполнитель                       : Game of Thrones
Часть                                    : 1
Часть/Положение                          : 1
Часть/Всего                              : 1
Трек                                     : The Red Woman
Трек/Положение                           : 1
Исполнитель                              : Game of Thrones
Жанр                                     : Sci-Fi & Fantasy
Тип содержимого                          : TV Show
Описание                                 : Season Six Premiere. At Castle Black, Thorne defends his treason while Edd and Davos defend themselves.
Дата записи                              : UTC 2016-04-24 08:00:00
Дата кодирования                         : UTC 2016-04-27 10:51:56
Дата пометки                             : UTC 2016-04-27 10:55:21
Правообладатель                          : © 2016 Home Box Office, Inc.
Обложка                                  : Yes
Рейтинг                                  : None
TVNetworkName                            : HBO
Part_ID                                  : 601
LongDescription                          : Season Six Premiere. At Castle Black, Thorne defends his treason while Edd and Davos defend themselves. Sansa and Theon race the cold and the hounds.
AppleStoreCountry                        : Germany
AppleStoreCatalogID                      : 1106769814
AlbumTitleID                             : 441216384
PlayListID                               : 1102936959
GenreID                                  : 4008
ContentRating                            : de-tv|Ab 18 Jahren|600|
Видео
Идентификатор                            : 1
Формат                                   : AVC
Формат/Информация                        : Advanced Video Codec
Профиль формата                          : [email protected]
Параметр CABAC формата                   : Нет
Параметр ReFrames формата                : 1 кадр
Идентификатор кодека                     : avc1
Идентификатор кодека/Информация          : Advanced Video Coding
Продолжительность                        : 50 м.
Битрейт                                  : 1448 Кбит/сек
Ширина                                   : 640 пикселей
Высота                                   : 478 пикселей
Соотношение сторон                       : 16:9
Режим частоты кадров                     : Переменный
Частота кадров                           : 23,976 кадра/сек
Минимальная частота кадров               : 23,810 кадра/сек
Максимальная частота кадров              : 24,390 кадра/сек
Цветовое пространство                    : YUV
Субдискретизация насыщенности            : 4:2:0
Битовая глубина                          : 8 бит
Тип развёртки                            : Прогрессивная
Бит/(Пиксели*Кадры)                      : 0.197
Размер потока                            : 518 Мбайт (78%)
Язык                                     : English
Дата кодирования                         : UTC 2016-04-27 10:54:59
Дата пометки                             : UTC 2016-04-27 10:55:21
Основные цвета                           : BT.601 NTSC
Характеристики трансфера                 : BT.709
Коэффициенты матрицы                     : BT.601
Аудио #1
Идентификатор                            : 2
Формат                                   : AAC
Формат/Информация                        : Advanced Audio Codec
Профиль формата                          : LC
Идентификатор кодека                     : 40
Продолжительность                        : 50 м.
Вид битрейта                             : Переменный
Битрейт                                  : 132 Кбит/сек
Максимальный битрейт                     : 190 Кбит/сек
Каналы                                   : 2 канала
Расположение каналов                     : Front: L R
Частота                                  : 44,1 КГц
Метод сжатия                             : С потерями
Размер потока                            : 47,1 Мбайт (7%)
Язык                                     : Russian
Дата кодирования                         : UTC 2016-04-27 10:51:56
Дата пометки                             : UTC 2016-04-27 10:51:58
Аудио #2
Идентификатор                            : 3
Формат                                   : AAC
Формат/Информация                        : Advanced Audio Codec
Профиль формата                          : LC
Идентификатор кодека                     : 40
Продолжительность                        : 50 м.
Вид битрейта                             : Переменный
Битрейт                                  : 132 Кбит/сек
Максимальный битрейт                     : 206 Кбит/сек
Каналы                                   : 2 канала
Расположение каналов                     : Front: L R
Частота                                  : 44,1 КГц
Метод сжатия                             : С потерями
Размер потока                            : 47,1 Мбайт (7%)
Язык                                     : Russian
Дата кодирования                         : UTC 2016-04-27 10:54:59
Дата пометки                             : UTC 2016-04-27 10:55:21
Аудио #3
Идентификатор                            : 4
Формат                                   : AAC
Формат/Информация                        : Advanced Audio Codec
Профиль формата                          : LC
Идентификатор кодека                     : 40
Продолжительность                        : 50 м.
Вид битрейта                             : Переменный
Битрейт                                  : 132 Кбит/сек
Максимальный битрейт                     : 190 Кбит/сек
Каналы                                   : 2 канала
Расположение каналов                     : Front: L R
Частота                                  : 44,1 КГц
Метод сжатия                             : С потерями
Размер потока                            : 46,9 Мбайт (7%)
Язык                                     : English
Дата кодирования                         : UTC 2016-04-27 10:54:59
Дата пометки                             : UTC 2016-04-27 10:55:21
Текст #1
Идентификатор                            : 5
Формат                                   : Timed Text
Режим смешивания                         : sbtl
Идентификатор кодека                     : tx3g
Продолжительность                        : 41 м.
Вид битрейта                             : Переменный
Битрейт                                  : 16 бит/сек
Размер потока                            : 4,90 Кбайт (0%)
Язык                                     : Russian
Дата кодирования                         : UTC 2016-04-27 10:54:59
Дата пометки                             : UTC 2016-04-27 10:55:21
Текст #2
Идентификатор                            : 6
Формат                                   : Timed Text
Режим смешивания                         : sbtl
Идентификатор кодека                     : tx3g
Продолжительность                        : 45 м.
Вид битрейта                             : Переменный
Битрейт                                  : 75 бит/сек
Размер потока                            : 25,1 Кбайт (0%)
Язык                                     : Russian
Дата кодирования                         : UTC 2016-04-27 10:54:59
Дата пометки                             : UTC 2016-04-27 10:55:21
Текст #3
Идентификатор                            : 7
Формат                                   : Timed Text
Режим смешивания                         : sbtl
Идентификатор кодека                     : tx3g
Продолжительность                        : 48 м.
Вид битрейта                             : Переменный
Битрейт                                  : 50 бит/сек
Размер потока                            : 18,0 Кбайт (0%)
Язык                                     : English
Дата кодирования                         : UTC 2016-04-27 10:54:59
Дата пометки                             : UTC 2016-04-27 10:55:21

iTunes Meta Tags

iTunes Country: 143443
genreID: 4008
playlistID: 1102936959
artistID: 441216384
contentID: 1106769814
Copyright: © 2016 Home Box Office, Inc.
Rating: 10
Long Description: Season Six Premiere. At Castle Black, Thorne defends his treason while Edd and Davos defend themselves. Sansa and Theon race the cold and the hounds.
Description: Season Six Premiere. At Castle Black, Thorne defends his treason while Edd and Davos defend themselves.
TV Season: 6
TV Episode ID: 601
TV Network: HBO
TV Episode #: 1
TV Show: Game of Thrones
Disk #: 1/1
Track #: 1/0
Release Date: 2016-04-24T08:00:00Z
Genre: Sci-Fi & Fantasy
Album: Game of Thrones, Season 6
Album Artist: Game of Thrones
Artist: Game of Thrones
Name: The Red Woman

Скриншоты





Последний раз редактировалось: Mamutov (2016-07-15 16:34), всего редактировалось 9 раз(а)

Создавать темы 02-Май-2016 08:24

[Профиль]  [ЛС] 

Pac Man

Стаж: 5 лет 6 месяцев

Сообщений: 116

Симпатии: 13

Уже вторая вышла

Создавать темы 02-Май-2016 09:22

[Профиль]  [ЛС] 

Собиржон

Стаж: 6 лет 6 месяцев

Сообщений: 100

И где же 2 ?

Создавать темы 02-Май-2016 12:00

[Профиль]  [ЛС] 

Timofeus

Стаж: 4 года 7 месяцев

Сообщений: 35

Симпатии: 7

Вы меня конечно извините, но

Создавать темы 02-Май-2016 16:11

[Профиль]  [ЛС] 

Sharaf

Стаж: 7 лет 1 месяц

Сообщений: 11

Симпатии: 3

Люди, выложите уже вторую серию!!!

Создавать темы 03-Май-2016 15:03

[Профиль]  [ЛС] 

Mamutov ®

Стаж: 4 года 11 месяцев

Сообщений: 255

Симпатии: 144

2-3 серия

Создавать темы 14-Май-2016 08:33

[Профиль]  [ЛС] 

Mamutov ®

Стаж: 4 года 11 месяцев

Сообщений: 255

Симпатии: 144

4 серия

Создавать темы 22-Май-2016 08:26

[Профиль]  [ЛС] 

Mamutov ®

Стаж: 4 года 11 месяцев

Сообщений: 255

Симпатии: 144

5-6 серия

Создавать темы 01-Июн-2016 23:40

[Профиль]  [ЛС] 

m_jan

Стаж: 7 лет 11 месяцев

Сообщений: 41

Братаны, 7 серия готова. Когда будете сюда заливать?

Создавать темы 08-Июн-2016 17:11

[Профиль]  [ЛС] 

Mamutov ®

Стаж: 4 года 11 месяцев

Сообщений: 255

Симпатии: 144

975847Братаны, 7 серия готова. Когда будете сюда заливать?
как выйдет серия

Создавать темы 08-Июн-2016 18:38

[Профиль]  [ЛС] 

Mamutov ®

Стаж: 4 года 11 месяцев

Сообщений: 255

Симпатии: 144

7 серия

Создавать темы 10-Июн-2016 07:43

[Профиль]  [ЛС] 

Mamutov ®

Стаж: 4 года 11 месяцев

Сообщений: 255

Симпатии: 144

8 серия

Создавать темы 16-Июн-2016 08:17

[Профиль]  [ЛС] 

Mamutov ®

Стаж: 4 года 11 месяцев

Сообщений: 255

Симпатии: 144

9 серия

Создавать темы 23-Июн-2016 08:02

[Профиль]  [ЛС] 

Mamutov ®

Стаж: 4 года 11 месяцев

Сообщений: 255

Симпатии: 144

10 серия

Создавать темы 30-Июн-2016 22:52

[Профиль]  [ЛС] 
Показать сообщения:    
Ответить на тему

Текущее время: 18-Дек 02:31

Часовой пояс: UTC + 5



Вы не можете начинать темы
Вы не можете отвечать на сообщения
Вы не можете редактировать свои сообщения
Вы не можете удалять свои сообщения
Вы не можете голосовать в опросах
Вы не можете прикреплять файлы к сообщениям
Вы не можете скачивать файлы