Супергеройское Кино / Superhero Movie (Крэйг Мазин) [2008, США, фантастика, боевик, триллер, комедия, HDRip] (Dub)

Ответить на тему
 

shamshod7 ®

Стаж: 1 год 11 месяцев

Сообщений: 56

Симпатии: 21

Супергеройское Кино / Superhero Movie
Страна: США
Жанр: фантастика, боевик, триллер, комедия
Год выпуска: 2008
Продолжительность: 83 мин. / 01:23
Перевод: Профессиональный (дублированный)
Cубтитры: нет
Режиссер: Крэйг Мазин
В ролях: Дрейк Белл, Сара Пэкстон, Кристофер МакДональд, Лесли Нильсен, Кевин Харт, Мэрион Росс, Райан Хансен, Кит Дэвид, Брент Спайнер, Роберт Джой
Описание: Сколько супергероев уже пытались спасти мир? Знакомьтесь с новым: его зовут Рик Райкер! Обычный школьник вдруг, неожиданным способом, обретает суперспособности (кроме умения летать!) Вот если бы еще он знал, как их использовать. Так что берегитесь: Стрекозец спешит на помощь!
Качество видео: HDRip
Формат видео: AVI
Видео: DivX 5, 704x384, 25fps [V: mpeg4, yuv420p, 704x384]
Аудио: Dolby AC3, 48000Hz, 6ch, 384kbps [A: ac3, 48000 Hz, 5.1, 384 kb/s]

MediaInfo

General
Complete name : D:\@@[email protected]@\tasi-ix\Супергеройское Кино.avi
Format : AVI
Format/Info : Audio Video Interleave
File size : 1.37 GiB
Duration : 1h 22mn
Overall bit rate : 2 371 Kbps
Writing application : VirtualDubMod 1.5.10.2 (build 2542/release)
Writing library : VirtualDubMod build 2542/release
Video
ID : 0
Format : MPEG-4 Visual
Format settings, BVOP : Yes
Format settings, QPel : No
Format settings, GMC : No warppoints
Format settings, Matrix : Default (H.263)
Codec ID : DX50
Codec ID/Hint : DivX 5
Duration : 1h 22mn
Bit rate : 1 977 Kbps
Width : 704 pixels
Height : 384 pixels
Display aspect ratio : 1.85:1
Frame rate : 25.000 fps
Color space : YUV
Chroma subsampling : 4:2:0
Bit depth : 8 bits
Scan type : Progressive
Compression mode : Lossy
Bits/(Pixel*Frame) : 0.293
Stream size : 1.14 GiB (83%)
Writing library : DivX 6.8.3-6.8.4 (UTC 2008-06-07)
Audio
ID : 1
Format : AC-3
Format/Info : Audio Coding 3
Mode extension : CM (complete main)
Format settings, Endianness : Big
Codec ID : 2000
Duration : 1h 22mn
Bit rate mode : Constant
Bit rate : 384 Kbps
Channel(s) : 6 channels
Channel positions : Front: L C R, Side: L R, LFE
Sampling rate : 48.0 KHz
Bit depth : 16 bits
Compression mode : Lossy
Stream size : 227 MiB (16%)
Alignment : Aligned on interleaves
Interleave, duration : 40 ms (1.00 video frame)
Interleave, preload duration : 512 ms

Скриншоты





Последний раз редактировалось: shamshod7 (2016-05-03 20:38), всего редактировалось 3 раз(а)

Создавать темы 03-Май-2016 17:35

[Профиль]  [ЛС] 

shamshod7 ®

Стаж: 1 год 11 месяцев

Сообщений: 56

Симпатии: 21

кино понравиться отвечаю

Создавать темы 03-Май-2016 19:28

[Профиль]  [ЛС] 

sarvar-aka

Стаж: 5 лет 2 месяца

Сообщений: 34

Симпатии: 1

Это же 2008 года фильм, а не 2016-го.

Создавать темы 03-Май-2016 20:02

[Профиль]  [ЛС] 

Топик был перенесен из форума HD-AVC в форум Фильмы до 2010
kat222000

Создавать темы 03-Май-2016 20:38

 

shamshod7 ®

Стаж: 1 год 11 месяцев

Сообщений: 56

Симпатии: 21

973261Это же 2008 года фильм, а не 2016-го.
спасибо подправил

Создавать темы 03-Май-2016 21:50

[Профиль]  [ЛС] 

shamshod7 ®

Стаж: 1 год 11 месяцев

Сообщений: 56

Симпатии: 21

не забудте затсенить

Создавать темы 05-Май-2016 18:01

[Профиль]  [ЛС] 

abzi73

Стаж: 2 года 7 месяцев

Сообщений: 2

Симпатии: 1

спасибо +

Создавать темы 28-Май-2016 21:48

[Профиль]  [ЛС] 
Показать сообщения:    
Ответить на тему

Текущее время: 12-Дек 13:34

Часовой пояс: UTC + 5



Вы не можете начинать темы
Вы не можете отвечать на сообщения
Вы не можете редактировать свои сообщения
Вы не можете удалять свои сообщения
Вы не можете голосовать в опросах
Вы не можете прикреплять файлы к сообщениям
Вы не можете скачивать файлы