Ферзь / Wazir (Беджой Намбиар / Bejoy Nambiar) [2016, Индия, Триллер, драма, криминал, детектив, BDRip] (MVO : ICG) (Sub Rus)

Ответить на тему
 

Камронбек ®

Стаж: 4 года 3 месяца

Сообщений: 9

Ферзь / Wazir
Страна: Индия
Жанр: Триллер, драма, криминал, детектив
Год выпуска: 2016
Продолжительность: 01:42:45
Перевод: Любительский (многоголосый закадровый) Доп. инфо о переводе ICG
Cубтитры: русские внешние
Режиссер: Беджой Намбиар / Bejoy Nambiar
В ролях: Амитабх Баччан, Фархан Акхтар, Адити Рао Хидари, Джон Абрахам, Нил Нитин Мукеш, Мурли Шарма, Анджум Шарма, Автар Гилл, Манав Кол, Пракаш Белавади, Сима Пахва
Описание: К бывшему полицейскому обращается за помощью старик-инвалид, прекрасно играющий в шахматы. Обучая Даниша всем прелестям этой старинной игры, Пандит-Джи раскрывает ему свое прошлое, свою трагедию. Даниш, испытывающий похожие чувства, решается помочь старику. Но чтобы одержать победу, Даниш должен сыграть профессионально, как в шахматах, применяя все уловки, которым научил его Пандит-Джи. Но неожиданно в игру вступает "тёмная лошадка", который называет себя - Ферзь.
Доп. информация: За дорожку с переводом и субтитры Спасибо! jasinpapa.
Качество видео: BDRip
Формат видео: AVI
Видео: XviD build 50, 720x304 (2.37:1), 24 fps, 1590 kbps avg
Аудио: AC3 Dolby Digital, 48 kHz, 3/2 (L,C,R,l,r) + LFE ch, 448.00 kbps
Формат субтитров: softsub (SRT)

MediaInfo

General
Complete name : F:\Wazir.2016.XviD.BDRip-Dego\Wazir.2016.XviD.BDRip-Dego.avi
Format : AVI
Format/Info : Audio Video Interleave
File size : 1.47 GiB
Duration : 1h 42mn
Overall bit rate : 2 048 Kbps
Writing application : VirtualDubMod 1.5.10.2 (build 2540/release)
Writing library : VirtualDubMod build 2540/release
Video
ID : 0
Format : MPEG-4 Visual
Format profile : [email protected]
Format settings, BVOP : Yes
Format settings, QPel : No
Format settings, GMC : No warppoints
Format settings, Matrix : Custom
Codec ID : XVID
Codec ID/Hint : XviD
Duration : 1h 42mn
Bit rate : 1 591 Kbps
Width : 720 pixels
Height : 304 pixels
Display aspect ratio : 2.35
Frame rate : 24.000 fps
Resolution : 24 bits
Colorimetry : 4:2:0
Scan type : Progressive
Bits/(Pixel*Frame) : 0.303
Stream size : 1.14 GiB (78%)
Writing library : XviD 1.2.1 (UTC 2008-12-04)
Audio
ID : 1
Format : AC-3
Format/Info : Audio Coding 3
Codec ID : 2000
Duration : 1h 42mn
Bit rate mode : Constant
Bit rate : 448 Kbps
Channel(s) : 6 channels
Channel positions : Front: L C R, Surround: L R, LFE
Sampling rate : 48.0 KHz
Video delay : 2ms
Stream size : 329 MiB (22%)
Alignment : Split accross interleaves
Interleave, duration : 42 ms (1.00 video frame)
Interleave, preload duration : 500 ms

Скриншоты





Последний раз редактировалось: Камронбек (2016-05-03 21:24), всего редактировалось 1 раз

Создавать темы 03-Май-2016 18:49

[Профиль]  [ЛС] 

eabdumalik

Стаж: 1 год 9 месяцев

Сообщений: 12

Симпатии: 1

скорост медленна))

Создавать темы 05-Май-2016 20:41

[Профиль]  [ЛС] 

Камронбек ®

Стаж: 4 года 3 месяца

Сообщений: 9

Для повышение скорости читать здесь http://tas-ix.me/viewtopic.php?t=41738

Создавать темы 05-Май-2016 21:33

[Профиль]  [ЛС] 

eabdumalik

Стаж: 1 год 9 месяцев

Сообщений: 12

Симпатии: 1

Камронбек, бу кандай киламан!! унчалик тушунмадим

Создавать темы 06-Май-2016 13:47

[Профиль]  [ЛС] 

AlenLegion

Стаж: 5 лет 5 месяцев

Сообщений: 40

Симпатии: 1

Субтитры не полны, только на песни.

Создавать темы 28-Июл-2016 10:53

[Профиль]  [ЛС] 
Показать сообщения:    
Ответить на тему

Текущее время: 24-Авг 00:34

Часовой пояс: UTC + 5



Вы не можете начинать темы
Вы не можете отвечать на сообщения
Вы не можете редактировать свои сообщения
Вы не можете удалять свои сообщения
Вы не можете голосовать в опросах
Вы не можете прикреплять файлы к сообщениям
Вы не можете скачивать файлы