Пальмы в снегу / Palmeras en la nieve (Фернандо Гонзалез Молина/Fernando González Molina) [2015, Испания, драма, мелодрама, HDRip - AVC] (MVO) (Sub ENG + Original ESP)

Ответить на тему
 

ladysco ®

Стаж: 5 лет 4 месяца

Сообщений: 40

Симпатии: 56

Пальмы в снегу / Palmeras en la nieve- Страна: Испания
Жанр: драма, мелодрама
Год выпуска: 2015
Продолжительность: 02:43:15-Перевод: Профессиональный (многоголосый закадровый)
Cубтитры: английские (отключаемые)
Оригинальная аудиодорожка: испанский
Навигация по главам: есть
Режиссер: Фернандо Гонзалез Молина/Fernando González Molina
В ролях: Марио Касас, Адриана Угарте, Макарена Гарсия, Ален Эрнандес, Берта Васкес, Джедже Апали, Даниэль Грао, Фернандо Кайо, Сельсо Бугальо
Описание: Это история о большой любви, связи времен и поколений. Красавица Кларенс живет в холодных горах. Однажды она находит загадочное письмо и решает узнать правду о прошлом своего отца. Девушка отправляется на остров Фернандо-По и как будто попадает в рай. Она идет по следам семейных тайн, где есть и запретная любовь, и предательство, и великие события, ставшие частью мировой истории.- -Качество видео: HDRip - AVC
Формат видео: AVC
Видео: V_MPEG4/ISO/AVC, 1024x428, 23.976 fps, 1888 kbps avg, 0.180 bit/pixel
Аудио RUS: AC3, 48 kHz, 2 ch, 384 kbps
Аудио ESP: AC3, 48 kHz, 6 ch, 448 kbps
Субтитры ENG: UTF-8, subrip

Интересные факты

• 415 000 испанцев назвали «Пальмы в снегу» лучшим фильмом 2015 года, а сыгравшего в ней главную роль Марио Касаса — лучшим актером года в рамках ежегодной премии Fotogramas de Plata.
• В испанском прокате фильм обошел седьмой эпизод «Звездных войн».
• Массовка фильма состояла из 2000 человек, что сделало производство «Пальм в снегу» крупнейшим испаноязычным проектом в настоящее время.
• Съемки проходили на острове Гран-Канария, в Колумбии и испанском городе Уэска.
• Для съемок было высажено 400 пальм, а также «с нуля» выстроены колониальное поместье с большой усадьбой и африканская деревня.
• Лента стала лауреатом престижных кинопремий: номинировалась в пяти категориях премии «Гойя» (испанский «Оскар») и выиграла в двух из них.

MediaInfo

Format : Matroska
Format version : Version 4 / Version 2
File size : 3.11 GiB
Duration : 2h 44mn
Overall bit rate : 2 711 Kbps
Movie name : Palmeras en la nieve (2015) HDRip-AVC by R.G. Resident
Encoded date : UTC 2016-04-25 01:34:00
Writing application : mkvmerge v9.1.0 ('Little Earthquakes') 64bit
Writing library : libebml v1.3.3 + libmatroska v1.4.4
Video
ID : 1
Format : AVC
Format/Info : Advanced Video Codec
Format profile : [email protected]
Format settings, CABAC : Yes
Format settings, ReFrames : 9 frames
Codec ID : V_MPEG4/ISO/AVC
Duration : 2h 43mn
Bit rate : 1 888 Kbps
Width : 1 024 pixels
Height : 428 pixels
Display aspect ratio : 2.40:1
Frame rate mode : Constant
Frame rate : 23.976 (24000/1001) fps
Color space : YUV
Chroma subsampling : 4:2:0
Bit depth : 8 bits
Scan type : Progressive
Bits/(Pixel*Frame) : 0.180
Stream size : 2.15 GiB (69%)
Title : -Lexx-
Writing library : x264 core 146 r2538 121396c
Encoding settings : cabac=1 / ref=9 / deblock=1:-2:-2 / analyse=0x3:0x113 / me=umh / subme=11 / psy=1 / psy_rd=1.00:0.10 / mixed_ref=1 / me_range=48 / chroma_me=1 / trellis=2 / 8x8dct=1 / cqm=0 / deadzone=21,11 / fast_pskip=0 / chroma_qp_offset=-3 / threads=6 / lookahead_threads=2 / sliced_threads=0 / nr=0 / decimate=1 / interlaced=0 / bluray_compat=0 / constrained_intra=0 / bframes=10 / b_pyramid=2 / b_adapt=2 / b_bias=0 / direct=3 / weightb=1 / open_gop=0 / weightp=2 / keyint=240 / keyint_min=23 / scenecut=40 / intra_refresh=0 / rc=2pass / mbtree=0 / bitrate=1888 / ratetol=1.0 / qcomp=0.60 / qpmin=0 / qpmax=69 / qpstep=4 / cplxblur=20.0 / qblur=0.5 / ip_ratio=1.40 / pb_ratio=1.30 / aq=1:1.00
Language : English
Default : Yes
Forced : No
Audio #1
ID : 2
Format : AC-3
Format/Info : Audio Coding 3
Mode extension : CM (complete main)
Format settings, Endianness : Big
Codec ID : A_AC3
Duration : 2h 43mn
Bit rate mode : Constant
Bit rate : 384 Kbps
Channel(s) : 2 channels
Channel positions : Front: L R
Sampling rate : 48.0 KHz
Frame rate : 31.250 fps (1536 spf)
Compression mode : Lossy
Stream size : 449 MiB (14%)
Title : MVO [Line]
Language : Russian
Default : Yes
Forced : No
Audio #2
ID : 4
Format : AC-3
Format/Info : Audio Coding 3
Mode extension : CM (complete main)
Format settings, Endianness : Big
Codec ID : A_AC3
Duration : 2h 44mn
Bit rate mode : Constant
Bit rate : 448 Kbps
Channel(s) : 6 channels
Channel positions : Front: L C R, Side: L R, LFE
Sampling rate : 48.0 KHz
Frame rate : 31.250 fps (1536 spf)
Compression mode : Lossy
Stream size : 526 MiB (17%)
Title : Оригинал
Language : Spanish
Default : No
Forced : No
Text
ID : 3
Format : UTF-8
Codec ID : S_TEXT/UTF8
Codec ID/Info : UTF-8 Plain Text
Duration : 2h 31mn
Bit rate : 40 bps
Count of elements : 1382
Stream size : 45.1 KiB (0%)
Language : English
Default : No
Forced : No
Menu
00:00:00.000 : en:00:00:00.000
00:09:42.373 : en:00:09:42.373
00:22:57.334 : en:00:22:57.334
00:33:35.472 : en:00:33:35.472
00:43:04.290 : en:00:43:04.290
00:54:21.967 : en:00:54:21.967
01:02:52.394 : en:01:02:52.394
01:13:23.816 : en:01:13:23.816
01:26:05.118 : en:01:26:05.118
01:42:58.214 : en:01:42:58.214
01:53:23.630 : en:01:53:23.630
02:07:47.994 : en:02:07:47.994
02:20:08.900 : en:02:20:08.900
02:32:35.313 : en:02:32:35.313
02:37:43.204 : en:02:37:43.204

Скриншоты


Торрент изменен 16.03.2017. Обновлено до HDRip с оригинальной аудиодорожкой


Последний раз редактировалось: ladysco (2017-03-17 00:24), всего редактировалось 3 раз(а)

Создавать темы 03-Май-2016 19:34

[Профиль]  [ЛС] 

kat222000

Стаж: 6 лет 7 месяцев

Сообщений: 608

Симпатии: 1055

ladysco, М медиоинфо у Вас одно,в описании другое.

Создавать темы 16-Мар-2017 21:01

[Профиль]  [ЛС] 

ladysco ®

Стаж: 5 лет 4 месяца

Сообщений: 40

Симпатии: 56

kat222000, теперь вроде все сходится

Информация от kat222000


Format : AVC
Пальмы в снегу_rus_esp.avi

Создавать темы 16-Мар-2017 21:12

[Профиль]  [ЛС] 

Топик был перенесен из форума Фильмы за 2015 в форум HD-AVC
ruhal

Комментарий от kat222000


При всём Уважении, если модератор начал проверку релиза он его и закончит пока не добьётся того что надо..И прошу не исправлять статусы проверки релизов...

Создавать темы 17-Мар-2017 00:23

 

kat222000

Стаж: 6 лет 7 месяцев

Сообщений: 608

Симпатии: 1055

ladysco, http://rutor.info/torrent/514007/palmy-v-snegu_palm...hdrip-avc-itunes
Ваш источник... И там формат далеко не avi исправляйте ....

Создавать темы 17-Мар-2017 21:07

[Профиль]  [ЛС] 
Показать сообщения:    
Ответить на тему

Текущее время: 24-Ноя 10:45

Часовой пояс: UTC + 5



Вы не можете начинать темы
Вы не можете отвечать на сообщения
Вы не можете редактировать свои сообщения
Вы не можете удалять свои сообщения
Вы не можете голосовать в опросах
Вы не можете прикреплять файлы к сообщениям
Вы не можете скачивать файлы