Специальный полуночный выпуск / Midnight Special (Джефф Николс / Jeff Nichols) [2016, США, Фантастика, триллер, приключения, WEBRip] (AVO : Xixidok)

Ответить на тему
 

UZM ®

Стаж: 5 лет 5 месяцев

Сообщений: 169

Симпатии: 189

Специальный полуночный выпуск / Midnight Special
Страна: США
Жанр: Фантастика, триллер, приключения
Год выпуска: 2016
Продолжительность: 01:51:52
Перевод: Авторский (одноголосый закадровый) Доп. инфо о переводе Xixidok
Cубтитры: вшитые корейские субтитры.
Режиссер: Джефф Николс / Jeff Nichols
В ролях: Майкл Шеннон, Джоэл Эдгертон, Кирстен Данст, Джейден Либерер, Адам Драйвер, Билл Кэмп, Скотт Хэйз, Сэм Шепард, Пол Спаркс, Дэвид Дженсен
Описание: Мальчик Элтон обладает необычными способностями: он то радио ловит и озвучивает, то изрекает какие-то пророчества, то выпускает лучи из глаз, которые заставляют людей почувствовать присутствие другого, высшего мира, и уверовать во всё и сразу. Естественно, что за таким «сыном божьим» охотятся религиозные фанатики, а потом к ним присоединяется ФБР. На защиту мальчика встают его родители, Рой и Ханна, и друг отца, Лукас: они везут его в некую точку икс, координаты которой мальчик получил в одном из своих видений. Что произойдёт, когда они там окажутся- непонятно, но Элону очень и очень нужно оказаться там…
Качество видео: WEBRip
Формат видео: AVI
Видео: Xvid 720x304 23.976fps 1561kbps
Аудио: MP3 44,1Hz stereo 192kbps

MediaInfo

General
Complete name : D:\Кино\Фильмы 2016\Midnight.Special.2016.Xixidok.avi
Format : AVI
Format/Info : Audio Video Interleave
File size : 1.38 GiB
Duration : 1h 51mn
Overall bit rate : 1 763 Kbps
Writing application : VirtualDubMod 1.5.10.3 (build 2550/release)
Writing library : VirtualDubMod build 2550/release
Video
ID : 0
Format : MPEG-4 Visual
Format profile : Advanced [email protected]
Format settings, BVOP : 2
Format settings, QPel : No
Format settings, GMC : No warppoints
Format settings, Matrix : Default (H.263)
Muxing mode : Packed bitstream
Codec ID : XVID
Codec ID/Hint : XviD
Duration : 1h 51mn
Bit rate : 1 562 Kbps
Width : 720 pixels
Height : 304 pixels
Display aspect ratio : 2.35:1
Frame rate : 23.976 fps
Color space : YUV
Chroma subsampling : 4:2:0
Bit depth : 8 bits
Scan type : Progressive
Compression mode : Lossy
Bits/(Pixel*Frame) : 0.298
Stream size : 1.22 GiB (89%)
Writing library : XviD 65
Audio
ID : 1
Format : MPEG Audio
Format version : Version 1
Format profile : Layer 3
Codec ID : 55
Codec ID/Hint : MP3
Duration : 1h 51mn
Bit rate mode : Constant
Bit rate : 192 Kbps
Channel(s) : 2 channels
Sampling rate : 44.1 KHz
Compression mode : Lossy
Stream size : 154 MiB (11%)
Alignment : Split accross interleaves
Interleave, duration : 42 ms (1.00 video frame)
Interleave, preload duration : 500 ms

Скриншот c названием фильма

Скриншоты

,
,
,


Последний раз редактировалось: UZM (2016-05-04 09:23), всего редактировалось 1 раз

Создавать темы 04-Май-2016 07:48

[Профиль]  [ЛС] 

sulaymon kh

Стаж: 2 года 7 месяцев

Сообщений: 4

Симпатии: 2

дай скорости

Создавать темы 04-Май-2016 08:11

[Профиль]  [ЛС] 

Топик был перенесен из форума Фильмы за 2016 в форум CamRip, DVDScr и т.п.
ruhal

Создавать темы 04-Май-2016 09:25

 
Показать сообщения:    
Ответить на тему

Текущее время: 23-Окт 03:46

Часовой пояс: UTC + 5



Вы не можете начинать темы
Вы не можете отвечать на сообщения
Вы не можете редактировать свои сообщения
Вы не можете удалять свои сообщения
Вы не можете голосовать в опросах
Вы не можете прикреплять файлы к сообщениям
Вы не можете скачивать файлы