Наша неполная история / Hamari Adhuri Kahaani (Мохит Сури | Mohit Suri) [2015, Индия, Драма, Мелодрама, HDTVRip] (Dub : [ICG]) (Sub Rus)

Ответить на тему
 

eabdumalik ®

Стаж: 1 год 9 месяцев

Сообщений: 12

Симпатии: 1

Наша неполная история / Hamari Adhuri Kahaani
Страна: Индия, Fox STAR Studios, Vishesh Films
Жанр: Драма, Мелодрама
Год выпуска: 2015
Продолжительность: 02:09:08
Перевод: Любительский (дублированный) Доп. инфо о переводе [ICG]
Cубтитры: русские
Оригинальная аудиодорожка: хинди
Режиссер: Мохит Сури | Mohit Suri
В ролях: Видья Балан, Эмран Хашми, Раджкумар Рао, Захари Соффин, Анил Джордж, Удей Чандра, Амала
Описание: Васудха работает флористом в одном из престижных отелей. Арав - бизнесмен, владелец ста восьми отелей, захотел купить еще один - Палас, где работает Васудха. Их встреча неизбежна, но что принесет она после? Любовь, страдания, ненависть? Ответы кроются в прошлом их судеб. Но суждено ли нам узнать всё? Ведь история неполная...
Качество видео: HDTVRip
Формат видео: AVI
Видео: Xvid 720x304 24fps 1736kbps [V: mpeg4 advanced simple profile, yuv420p, 720x304, 1736 kb/s]
Аудио: Dolby AC3 48000Hz 6ch 448kbps [A: ac3, 48000 Hz, 5.1, 448 kb/s] (русский)
Аудио 2: Dolby AC3 48000Hz stereo 224kbps [A: ac3, 48000 Hz, stereo, 224 kb/s] (хинди)
Формат субтитров: softsub (SRT)

MediaInfo

Общее
Полное имя : G:\журнал\Hamari.Adhuri.Kahani.2015.HDRip.XviD.ICG\Hamari.Adhuri.Kahani.2015.HDRip.XviD.ICG.avi
Формат : AVI
Формат/Информация : Audio Video Interleave
Профиль формата : OpenDML
Размер файла : 2,19 Гбайт
Продолжительность : 2 ч. 9 м.
Общий поток : 2427 Кбит/сек
Программа кодирования : VirtualDubModRus 1.5.10.2 (build 2542/release)
Библиотека кодирования : VirtualDubMod build 2542/release
Видео
Идентификатор : 0
Формат : MPEG-4 Visual
Профиль формата : Advanced [email protected]
Параметр BVOP формата : 1
Параметр QPel формата : Нет
Параметр GMC формата : Без точки перехода
Параметр матрицы формата : Default (MPEG)
Идентификатор кодека : XVID
Идентификатор кодека/Подсказка : XviD
Продолжительность : 2 ч. 9 м.
Битрейт : 1737 Кбит/сек
Ширина : 720 пикселей
Высота : 304 пикселя
Соотношение сторон : 2,35:1
Частота кадров : 24,000 кадра/сек
Цветовое пространство : YUV
Субдискретизация насыщенности : 4:2:0
Битовая глубина : 8 бит
Тип развёртки : Прогрессивная
Метод сжатия : С потерями
Бит/(Пиксели*Кадры) : 0.331
Размер потока : 1,57 Гбайт (72%)
Библиотека кодирования : XviD 73
Аудио #1
Идентификатор : 1
Формат : AC-3
Формат/Информация : Audio Coding 3
Расширение режима : CM (complete main)
Параметр Endianness формата : Big
Идентификатор кодека : 2000
Продолжительность : 2 ч. 9 м.
Вид битрейта : Постоянный
Битрейт : 448 Кбит/сек
Каналы : 6 каналов
Расположение каналов : Front: L C R, Side: L R, LFE
Частота : 48,0 КГц
Битовая глубина : 16 бит
Метод сжатия : С потерями
Размер потока : 414 Мбайт (18%)
Выравнивание : Разделение по промежуткам
Продолжительность промежутка : 42 мс. (1,00 видеокадр)
Время предзагрузки промежутка : 500 мс.
Аудио #2
Идентификатор : 2
Формат : AC-3
Формат/Информация : Audio Coding 3
Расширение режима : CM (complete main)
Параметр Endianness формата : Big
Идентификатор кодека : 2000
Продолжительность : 2 ч. 9 м.
Вид битрейта : Постоянный
Битрейт : 224 Кбит/сек
Каналы : 2 канала
Расположение каналов : Front: L R
Частота : 48,0 КГц
Битовая глубина : 16 бит
Метод сжатия : С потерями
Размер потока : 207 Мбайт (9%)
Выравнивание : Соединение по промежуткам
Продолжительность промежутка : 42 мс. (1,00 видеокадр)
Время предзагрузки промежутка : 512 мс.

Скриншоты





Последний раз редактировалось: eabdumalik (2016-05-09 19:01), всего редактировалось 1 раз

Создавать темы 09-Май-2016 11:34

[Профиль]  [ЛС] 
Показать сообщения:    
Ответить на тему

Текущее время: 23-Авг 19:02

Часовой пояс: UTC + 5



Вы не можете начинать темы
Вы не можете отвечать на сообщения
Вы не можете редактировать свои сообщения
Вы не можете удалять свои сообщения
Вы не можете голосовать в опросах
Вы не можете прикреплять файлы к сообщениям
Вы не можете скачивать файлы