Побег за мечтой (Константин Тищенко, Юрий Сысоев, Владимир Мистюков) [2015, боевик, криминал, драма, WEB-DLRip]

Ответить на тему
 

kat222000 ®

Стаж: 6 лет 4 месяца

Сообщений: 608

Симпатии: 1055

-Побег за мечтой-Жанр: боевик, криминал, драма
Год выпуска: 2015
Продолжительность: 01:15:46-Режиссёр: Константин Тищенко, Юрий Сысоев, Владимир Мистюков-В ролях: Владимир Вдовиченков, Мирослава Карпович, Андрей Чадов, Денис Косяков, Антон Буглак, Александр Кононец, Прохор Чеховской, Александр Фурсенко, Зоя Кайдановская, Алексей Фатеев-Описание: Три истории о трех разных мужчинах. Молодой писатель без книги, но со смертью под боком. Врач с принципиальной позицией и непониманием среди окружающих. И адвокат, считающий, что от всего можно откупиться. Всех троих испытает судьба, и ни один из них не останется прежним…-Качество видео: WEB-DLRip
Формат видео: AVI
Видео: XviD, 2187 Кбит/с, 720x384
Аудио: AC3, 2 ch, 384 Кбит/с-

MediaInfo

General
Complete name : D:\Фильмы\Наше Кино\p0beg.3a.me4t0j.2o16.O.WEB-DLRip.14OOMB.avi
Format : AVI
Format/Info : Audio Video Interleave
File size : 1.37 GiB
Duration : 1h 15mn
Overall bit rate : 2 581 Kbps
Movie name : p0beg.3a.me4t0j.2o15.O.WEB-DLRip.14OOMB
Writing application : VirtualDubMod 1.5.10.2 (build 2540/release)
Original source form/Name : Movie
Video
ID : 0
Format : MPEG-4 Visual
Format profile : Advanced [email protected]
Format settings, BVOP : 2
Format settings, QPel : No
Format settings, GMC : No warppoints
Format settings, Matrix : Default (MPEG)
Codec ID : XVID
Codec ID/Hint : XviD
Duration : 1h 15mn
Bit rate : 2 086 Kbps
Width : 720 pixels
Height : 384 pixels
Display aspect ratio : 1.85:1
Frame rate : 25.000 fps
Color space : YUV
Chroma subsampling : 4:2:0
Bit depth : 8 bits
Scan type : Progressive
Compression mode : Lossy
Bits/(Pixel*Frame) : 0.302
Stream size : 1.10 GiB (81%)
Writing library : XviD 1.2.1 (UTC 2008-12-04)
Audio
ID : 1
Format : AC-3
Format/Info : Audio Coding 3
Mode extension : CM (complete main)
Format settings, Endianness : Big
Codec ID : 2000
Duration : 1h 15mn
Bit rate mode : Constant
Bit rate : 384 Kbps
Channel(s) : 2 channels
Channel positions : Front: L R
Sampling rate : 48.0 KHz
Compression mode : Lossy
Stream size : 208 MiB (15%)
Alignment : Split accross interleaves
-

Скриншоты





Последний раз редактировалось: kat222000 (2016-05-21 05:53), всего редактировалось 1 раз

Создавать темы 20-Май-2016 23:10

[Профиль]  [ЛС] 
Показать сообщения:    
Ответить на тему

Текущее время: 23-Авг 05:25

Часовой пояс: UTC + 5



Вы не можете начинать темы
Вы не можете отвечать на сообщения
Вы не можете редактировать свои сообщения
Вы не можете удалять свои сообщения
Вы не можете голосовать в опросах
Вы не можете прикреплять файлы к сообщениям
Вы не можете скачивать файлы