Наша Маша и Волшебный Орех / Our Masha & Mistic Nut (Егор Кончаловский) [2009, Россия, мультфильм, фэнтези, приключения, семейный, CamRip]

Ответить на тему
 

Nehtez ®

Стаж: 2 года

Сообщений: 75

Симпатии: 34

Наша Маша и Волшебный Орех / Our Masha & Mistic Nut
Страна: Россия
Жанр: мультфильм, фэнтези, приключения, семейный
Год выпуска: 2009
Продолжительность: 1:13:13
Перевод: Не требуется
Cубтитры: нет
Режиссер: Егор Кончаловский
В ролях: Анна Снаткина
Всеволод Полищук
Тимур Родригез
Антон Пампушный
Владимир Зайцев
Оскар Кучера
Николай Кузнецов
Мария Аронова
Пётр Иващенко
Описание: Школьница Маша, как и многие из нас, считает, что настоящих друзей найти в нашем мире почти невозможно. Настоящая любовь — недостижимый идеал, и, вообще, чудес не бывает. Наверное, поэтому именно с ней под Новый год начинают происходить чудеса… Она находит волшебный орех Кракатук, который переносит девочку в невероятно красивую Сказочную страну. Там ее игрушки, Буратино и плюшевый медведь, становятся мальчишками Борькой и Михеем, а робот Гоша, подаренный родителями на Новый год, самым настоящим принцем.
Но власть в Сказочной стране захватили крысы, и правит ей коварный Император. Мало того, он со своими слугами, Ником и Диком, давно охотится за волшебным орехом. Ведь Кракатук способен выполнить любое желание, а крысиный повелитель мечтает управлять всей Вселенной. Он делает Маше предложение, от каких не отказываются… К чему приведут интриги Императора? Захочет ли Маша вернуться домой, ведь тогда принц в ее мире снова станет игрушкой? К кому попадет волшебный орех в новогоднюю полночь и получится ли загадать сокровенное желание?
Качество видео: CamRip
Формат видео: MP4
Видео: Video: MPEG4 Video (H264) 640x350 25fps 546kbps [V: h264 constrained baseline L3.0, yuv420p, 640x350, 546 kb/s]
Аудио: Audio: AAC 44100Hz stereo 95kbps [A: IsoMedia File Produced by Google, 5-11-2011 (aac, 44100 Hz, stereo, 95 kb/s)]

MediaInfo

General
Complete name : F:\filmes\Nasha_Masha_i_Volshebnyi_Orex.mp4
Format : MPEG-4
Format profile : Base Media / Version 2
Codec ID : mp42
File size : 338 MiB
Duration : 1h 13mn
Overall bit rate mode : Variable
Overall bit rate : 645 Kbps
Encoded date : UTC 2016-03-14 14:19:54
Tagged date : UTC 2016-03-14 14:19:54
gsst : 0
gstd : 4393540
Video
ID : 1
Format : AVC
Format/Info : Advanced Video Codec
Format profile : [email protected]
Format settings, CABAC : No
Format settings, ReFrames : 1 frame
Codec ID : avc1
Codec ID/Info : Advanced Video Coding
Duration : 1h 13mn
Bit rate : 547 Kbps
Maximum bit rate : 2 081 Kbps
Width : 640 pixels
Height : 350 pixels
Display aspect ratio : 1.85:1
Frame rate mode : Constant
Frame rate : 25.000 fps
Color space : YUV
Chroma subsampling : 4:2:0
Bit depth : 8 bits
Scan type : Progressive
Bits/(Pixel*Frame) : 0.098
Stream size : 286 MiB (85%)
Tagged date : UTC 2016-03-14 14:21:39
Audio
ID : 2
Format : AAC
Format/Info : Advanced Audio Codec
Format profile : LC
Codec ID : 40
Duration : 1h 13mn
Bit rate mode : Variable
Bit rate : 96.0 Kbps
Maximum bit rate : 105 Kbps
Channel(s) : 2 channels
Channel positions : Front: L R
Sampling rate : 44.1 KHz
Compression mode : Lossy
Stream size : 50.3 MiB (15%)
Title : IsoMedia File Produced by Google, 5-11-2011
Encoded date : UTC 2016-03-14 14:20:56
Tagged date : UTC 2016-03-14 14:21:39

Скриншот c названием фильма

Скриншоты



Последний раз редактировалось: Nehtez (2016-06-08 09:53), всего редактировалось 1 раз

Создавать темы 07-Июн-2016 16:18

[Профиль]  [ЛС] 

Топик был перенесен из форума Мультфильмы в форум Видео для мобильных устройств
ruhal

Создавать темы 07-Июн-2016 20:44

 
Показать сообщения:    
Ответить на тему

Текущее время: 14-Дек 21:58

Часовой пояс: UTC + 5



Вы не можете начинать темы
Вы не можете отвечать на сообщения
Вы не можете редактировать свои сообщения
Вы не можете удалять свои сообщения
Вы не можете голосовать в опросах
Вы не можете прикреплять файлы к сообщениям
Вы не можете скачивать файлы