[english] Правда / Truth (Джеймс Вандербилт / James Vanderbilt) [2015, Австралия, США, драма, биография, BDRip] (Sub Eng + Original Eng)

Ответить на тему
 

IQBOT ®

Стаж: 6 лет 7 месяцев

Сообщений: 449

Симпатии: 81

[english] Правда / Truth
Страна: Австралия, США
Жанр: драма, биография
Год выпуска: 2015
Продолжительность: 2:05:13
Перевод: Отсутствует
Cубтитры: английские
Оригинальная аудиодорожка: английский
Режиссер: Джеймс Вандербилт / James Vanderbilt
В ролях: Кейт Бланшетт, Роберт Редфорд, Тофер Грейс, Деннис Куэйд, Элизабет Мосс, Брюс Гринвуд, Стейси Кич, Джон Бенжамин Хикки, Дэвид Лайонс, Дермот Малруни
Описание: В картине будет рассказываться о скандале, разразившемся после того, как суперпопулярный ведущий новостной программы на CBS Дэн Рэзер заявил в эфире о том, что Джордж Буш-мл. по блату попал в Национальную гвардию США, чтобы избежать отправки во Вьетнам (спасибо могучему папе Бушу-старшему, который на тот момент служил послом). После такой правды репутация Рэзера здорово пострадала, а его продюсера Мэри Мэйпс и вовсе уволили.
Качество видео: BDRip
Формат видео: AVI
Видео: Xvid 720x304 23.976fps 1109kbps
Аудио: Dolby AC3 48000Hz 6ch 448kbps
Формат субтитров: softsub (SRT)

MediaInfo

General
Complete name : D:\Video\Truth.2015.BRRip.XviD.AC3-ETRG\Truth.2015.BRRip.XviD.AC3-ETRG.avi
Format : AVI
Format/Info : Audio Video Interleave
File size : 1.37 GiB
Duration : 2h 5mn
Overall bit rate : 1 567 Kbps
Writing library : VirtualDub build 32618/release
Copyright : SaM
Video
ID : 0
Format : MPEG-4 Visual
Format profile : Advanced [email protected]
Format settings, BVOP : Yes
Format settings, QPel : No
Format settings, GMC : No warppoints
Format settings, Matrix : Default (H.263)
Codec ID : XVID
Codec ID/Hint : XviD
Duration : 2h 5mn
Bit rate : 1 110 Kbps
Width : 720 pixels
Height : 304 pixels
Display aspect ratio : 2.35:1
Frame rate : 23.976 fps
Color space : YUV
Chroma subsampling : 4:2:0
Bit depth : 8 bits
Scan type : Progressive
Compression mode : Lossy
Bits/(Pixel*Frame) : 0.211
Stream size : 994 MiB (71%)
Writing library : XviD 65
Audio
ID : 1
Format : AC-3
Format/Info : Audio Coding 3
Mode extension : CM (complete main)
Format settings, Endianness : Big
Codec ID : 2000
Duration : 2h 5mn
Bit rate mode : Constant
Bit rate : 448 Kbps
Channel(s) : 6 channels
Channel positions : Front: L C R, Side: L R, LFE
Sampling rate : 48.0 KHz
Bit depth : 16 bits
Compression mode : Lossy
Stream size : 401 MiB (29%)
Alignment : Aligned on interleaves
Interleave, duration : 42 ms (1.00 video frame)
Interleave, preload duration : 512 ms

Скриншот c названием фильма

Скриншоты



Последний раз редактировалось: IQBOT (2016-06-11 20:06), всего редактировалось 1 раз

Создавать темы 11-Июн-2016 19:18

[Профиль]  [ЛС] 
Показать сообщения:    
Ответить на тему

Текущее время: 23-Авг 05:41

Часовой пояс: UTC + 5



Вы не можете начинать темы
Вы не можете отвечать на сообщения
Вы не можете редактировать свои сообщения
Вы не можете удалять свои сообщения
Вы не можете голосовать в опросах
Вы не можете прикреплять файлы к сообщениям
Вы не можете скачивать файлы