Одноклассницы (Дмитрий Суворов) [2016, комедия, WEB-DLRip] [Лицензия]

Ответить на тему
 

ruhal ®

Стаж: 2 года 8 месяцев

Сообщений: 1181

Симпатии: 1836

-Одноклассницы-
Жанр: комедия
Год выпуска: 2016
Продолжительность: 01:17:21-Режиссёр: Дмитрий Суворов-В ролях: Светлана Ходченкова, Екатерина Вилкова, Валентина Мазунина, Ольга Кузьмина,
Арарат Кещян, Роман Юнусов, Илья Любимов, Антон Макарский, Денис Косяков, Дмитрий Хрусталев-Описание: Три подруги Вика, Света и Даша бросают свои дела и едут в Сочи на девичник к бывшей однокласснице Кате,
чтобы как следует там оторваться. Веселье в разгаре и шампанское льется рекой, но тут случается то,
чего никто не мог ожидать — в самый разгар праздника Катя застает своего жениха с пышногрудой блондинкой.
Невеста в истерике. Она запирается в номере и говорит, что готова выйти за первого встречного, лишь бы не за него.
Свадьба назначена на завтра и у решительных подруг есть всего лишь одна ночь, чтобы найти Кате нового мужа. Удастся ли им это?-Качество видео: WEB-DLRip
Формат видео: AVI
Видео: Xvid 720x304 24fps 2132kbps
Аудио: Dolby AC3 48000Hz 6ch 384kbps
-

MediaInfo

General
Complete name : E:\Films\0DH0KLaCH1C1.2016.O.WEB-DLRip.avi
Format : AVI
Format/Info : Audio Video Interleave
File size : 1.37 GiB
Duration : 1h 17mn
Overall bit rate : 2 526 Kbps
Writing application : VirtualDubMod 1.5.10.3 | www.virtualdub-fr.org || (build 2550/release)
Writing library : VirtualDubMod build 2550/release
Video
ID : 0
Format : MPEG-4 Visual
Format profile : Advanced [email protected]
Format settings, BVOP : 2
Format settings, QPel : No
Format settings, GMC : No warppoints
Format settings, Matrix : Default (MPEG)
Codec ID : XVID
Codec ID/Hint : XviD
Duration : 1h 17mn
Bit rate : 2 133 Kbps
Width : 720 pixels
Height : 304 pixels
Display aspect ratio : 2.35:1
Frame rate : 24.000 fps
Color space : YUV
Chroma subsampling : 4:2:0
Bit depth : 8 bits
Scan type : Progressive
Compression mode : Lossy
Bits/(Pixel*Frame) : 0.406
Stream size : 1.15 GiB (84%)
Writing library : XviD 1.2.1 (UTC 2008-12-04)
Audio
ID : 1
Format : AC-3
Format/Info : Audio Coding 3
Mode extension : CM (complete main)
Format settings, Endianness : Big
Codec ID : 2000
Duration : 1h 17mn
Bit rate mode : Constant
Bit rate : 384 Kbps
Channel(s) : 6 channels
Channel positions : Front: L C R, Side: L R, LFE
Sampling rate : 48.0 KHz
Bit depth : 16 bits
Compression mode : Lossy
Stream size : 212 MiB (15%)
Alignment : Split accross interleaves
Interleave, duration : 42 ms (1.00 video frame)
Interleave, preload duration : 500 ms

Скриншоты




Создавать темы 07-Июл-2016 18:13

[Профиль]  [ЛС] 
Показать сообщения:    
Ответить на тему

Текущее время: 17-Дек 03:44

Часовой пояс: UTC + 5



Вы не можете начинать темы
Вы не можете отвечать на сообщения
Вы не можете редактировать свои сообщения
Вы не можете удалять свои сообщения
Вы не можете голосовать в опросах
Вы не можете прикреплять файлы к сообщениям
Вы не можете скачивать файлы