Тиран / Tyrant / Сезон: 3 / Серии: 1-10 из 10 (Дэвид Йэтс) [2016, боевик, триллер, драма, WEB-DLRip] MVO (BaibaKo) + Original

Страницы :  1, 2  След.

Ответить на тему
 

lector_87 ®

Стаж: 3 года 10 месяцев

Сообщений: 391

Симпатии: 348


Тиран / Tyrant
Год выпуска: 2016
Страна:США
Жанр: боевик, триллер, драма
Продолжительность: 1 x ~ 00:43:00
Перевод: профессиональный (многоголосый, закадровый) - [BaibaKo]
Субтитры: | отсутствуют |-Режиссер:Дэвид Йэтс, Гвинет Хердер-Пэйтон, Майкл Леманн, Дэвид Петрарка-В ролях:Адам Рэйнер, Дженнифер Финниган, Энн Уинтерс, Ашраф Бархом, Ной Сильвер, Моран Атиас, Элис Крайдж, Александр Карим, Сибилла Дин-Описание:Захватывающее продолжение американской многосерийной драмы Тиран 3 сезон спешит порадовать своих поклонников, которые уже заждались развязки этой трогательной и яркой истории. Напомним, что в центре рассказа оказался Барри Аль Файед, сын восточного диктатора. Как только мальчику исполнилось шестнадцати лет, он, не выдержав постоянных ожесточенных выстрелов и военных действий в своей стране, решает сбежать в демократическую Америку. Здесь он налаживает свою жизни и вскоре становиться одним из лучших педиатров города Лос-Анджелеса.
Заводит крепкую семью вместе с милой блондинкой Молли и у них рождаются двое прекрасных детей. Долгих двадцать лет главному герою не приходилось ступать на родную землю. Но женитьба его племянника заставила Барри Аль Файеда вернутся на родину, в далекое государство Аббудин. Узнав, что отец трагически погибает, ему приходится стать лидером Ближнего Востока, и принять обязанности по управлению государством...-Качество: WEB-DLRip
Формат: | XviD | AVI |
Видео: XviD, 1400 Кбит/с, 720x400
Аудио : Русский, английский (MP3, 2 ch, 128 Кбит/с)-

✘ Раздача ведется путем добавления новых серий✘

Раздача ведётся путём добавления новых серий; при каждом добавлении создаётся новый торрент. Чтобы начать докачку новой серии, пользователям необходимо сделать следующее:
(1) остановить скачивание,
(2) удалить старый торрент у себя из клиента (старые серии удалять не надо),
(3) скачать новый торрент и запустить его у себя в клиенте вместо старого, при этом указать клиенту путь в старую папку куда и должно происходить скачивание новых серий.
Ваш клиент при этом должен произвести хеширование (проверку) старой папки (если не производит сам - помогите ему сделать это), и будет докачивать только те серии которых у вас ещё нет. Старые серии при этом не удаляются, а продолжают раздаваться!
Eсли вы уже удалили старые серии, то предотвратить повторную закачку старых серий можно, отжав галочку в соответствующих местах при запуске нового торрента. По возможности, желательно не удалять старые серии как можно дольше чтобы релизёр не столько продолжал раздавать старые серии, а смог сконцентрироваться на новых.

✘ MediaInfo ✘

General
Complete name               : D:\Видео\Tyrant (Season 03) BaibaKo\Tyrant.s03e01.WEB-DLRip.XviD.Rus.Eng.BaibaKo.avi
Format                      : AVI
Format/Info                 : Audio Video Interleave
File size                   : 601 MiB
Duration                    : 50mn 54s
Overall bit rate            : 1 650 Kbps
Writing application         : VirtualDubMod 1.5.10.3 | www.virtualdub-fr.org || (build 2550/release)
Writing library             : VirtualDubMod build 2550/release
Video
ID                          : 0
Format                      : MPEG-4 Visual
Format profile              : Advanced [email protected]
Format settings, BVOP       : 1
Format settings, QPel       : No
Format settings, GMC        : No warppoints
Format settings, Matrix     : Default (MPEG)
Codec ID                    : XVID
Codec ID/Hint               : XviD
Duration                    : 50mn 54s
Bit rate                    : 1 380 Kbps
Width                       : 720 pixels
Height                      : 400 pixels
Display aspect ratio        : 16:9
Frame rate                  : 23.976 fps
Color space                 : YUV
Chroma subsampling          : 4:2:0
Bit depth                   : 8 bits
Scan type                   : Progressive
Compression mode            : Lossy
Bits/(Pixel*Frame)          : 0.200
Stream size                 : 502 MiB (84%)
Writing library             : XviD 73
Audio #1
ID                          : 1
Format                      : MPEG Audio
Format version              : Version 1
Format profile              : Layer 3
Mode                        : Joint stereo
Mode extension              : MS Stereo
Codec ID                    : 55
Codec ID/Hint               : MP3
Duration                    : 50mn 54s
Bit rate mode               : Constant
Bit rate                    : 128 Kbps
Channel(s)                  : 2 channels
Sampling rate               : 48.0 KHz
Compression mode            : Lossy
Stream size                 : 46.6 MiB (8%)
Alignment                   : Aligned on interleaves
Interleave, duration        : 42 ms (1.00 video frame)
Interleave, preload duratio : 504 ms
Audio #2
ID                          : 2
Format                      : MPEG Audio
Format version              : Version 1
Format profile              : Layer 3
Mode                        : Joint stereo
Mode extension              : MS Stereo
Codec ID                    : 55
Codec ID/Hint               : MP3
Duration                    : 50mn 54s
Bit rate mode               : Constant
Bit rate                    : 128 Kbps
Channel(s)                  : 2 channels
Sampling rate               : 48.0 KHz
Compression mode            : Lossy
Stream size                 : 46.6 MiB (8%)
Alignment                   : Aligned on interleaves
Interleave, duration        : 42 ms (1.00 video frame)
Interleave, preload duratio : 504 ms

✘ Скриншоты ✘



✘ Важно смотреть всем ✘

Всем нетерпеливым, канал на отдачу маленький.
Ныть где сид, поддайте скорости не нужно. Не нравится - идите мимо, найдите Альтернативные раздачи.
Раздачи на трекере не предназначены для удовлетворения лично ваших запросов; не нравится раздача или скорость раздачи - молча пройдите мимо, поищите что-либо более подходящее вам, без негативных комментариев здесь.


Последний раз редактировалось: lector_87 (2016-10-15 18:50), всего редактировалось 8 раз(а)

Создавать темы 09-Июл-2016 14:15

[Профиль]  [ЛС] 

+998911591811

Стаж: 4 года 2 месяца

Сообщений: 4

Раздача будет???

Создавать темы 09-Июл-2016 15:09

[Профиль]  [ЛС] 

+998911591811

Стаж: 4 года 2 месяца

Сообщений: 4

Вой извините что не прочел "Важно смотреть всем" Узур тилимизи ари чаксин !!!

Создавать темы 09-Июл-2016 15:24

[Профиль]  [ЛС] 

Doc_093

Стаж: 6 лет 10 месяцев

Сообщений: 32

Симпатии: 3

lector_87, спасибо за труд)

Комментарий от lector_87


не зашто tx

Создавать темы 09-Июл-2016 16:40

[Профиль]  [ЛС] 

Жнец

Стаж: 6 лет 4 месяца

Сообщений: 10

Симпатии: 1

lector_87, Спасибо за релиз aa

Создавать темы 10-Июл-2016 01:03

[Профиль]  [ЛС] 

lector_87 ®

Стаж: 3 года 10 месяцев

Сообщений: 391

Симпатии: 348

+2 серия

Создавать темы 17-Июл-2016 09:59

[Профиль]  [ЛС] 

lector_87 ®

Стаж: 3 года 10 месяцев

Сообщений: 391

Симпатии: 348

+3 серия

Создавать темы 25-Июл-2016 22:54

[Профиль]  [ЛС] 

akmalasadbek

Стаж: 1 год 8 месяцев

Сообщений: 1

спасибо

Создавать темы 26-Июл-2016 11:42

[Профиль]  [ЛС] 

lector_87 ®

Стаж: 3 года 10 месяцев

Сообщений: 391

Симпатии: 348

+4 серия

Создавать темы 31-Июл-2016 14:40

[Профиль]  [ЛС] 

lector_87 ®

Стаж: 3 года 10 месяцев

Сообщений: 391

Симпатии: 348

5 серия

Создавать темы 06-Авг-2016 04:32

[Профиль]  [ЛС] 

lector_87 ®

Стаж: 3 года 10 месяцев

Сообщений: 391

Симпатии: 348

6 серия

Создавать темы 13-Авг-2016 01:49

[Профиль]  [ЛС] 

lector_87 ®

Стаж: 3 года 10 месяцев

Сообщений: 391

Симпатии: 348

7 серия

Создавать темы 19-Авг-2016 11:56

[Профиль]  [ЛС] 

lector_87 ®

Стаж: 3 года 10 месяцев

Сообщений: 391

Симпатии: 348

8 серия

Создавать темы 26-Авг-2016 16:28

[Профиль]  [ЛС] 

tuychi

Стаж: 5 лет 9 месяцев

Сообщений: 9

Симпатии: 2

9-seriana tashelar

Создавать темы 05-Сен-2016 10:23

[Профиль]  [ЛС] 

tuychi

Стаж: 5 лет 9 месяцев

Сообщений: 9

Симпатии: 2

agar topolmasela mana silka
http://torrent-z.org/tv-series/86-tiran-tyrant-2-sezon.html

Создавать темы 05-Сен-2016 10:24

[Профиль]  [ЛС] 
Показать сообщения:    
Ответить на тему

Текущее время: 16-Дек 19:38

Часовой пояс: UTC + 5



Вы не можете начинать темы
Вы не можете отвечать на сообщения
Вы не можете редактировать свои сообщения
Вы не можете удалять свои сообщения
Вы не можете голосовать в опросах
Вы не можете прикреплять файлы к сообщениям
Вы не можете скачивать файлы