Дефиле (Виталий Суслин) [2015, драма, WEB-DLRip]

Ответить на тему
 

kat222000 ®

Стаж: 6 лет 5 месяцев

Сообщений: 608

Симпатии: 1055

Дефиле
Жанр: драма
Год выпуска: 2015
Продолжительность: 01:26:01
Режиссёр: Виталий Суслин
В ролях: Махлина Анна, Карпова Мария, Прасолов Александр, Микитенко Петр, Микитенко Анастасия, Микитенко Кузьма, Эрнст Романов, Рублев Сергей, Ромашко Илья, Чурилова Галина
Описание: В основе сюжета фильма история троих друзей, которые встречаются в родной деревне после долгого отсутствия. Вовка работал на севере, Таракан — в районном городе охранником, у Олега в это время родился сын. Жизнь идет своим чередом, пока одним утром издалека в деревню не приезжают седой старик и две красивые девушки Маша и Даяна. Вовка влюбляется в Машу и он, пытаясь добиться внимания, приглашает её с подругой вечером отметить свой День рождения. На празднике Маша и Даяна знакомится с друзьями Вовки. Девушки меняют жизнь этих простых людей.
Качество видео: WEB-DLRip
Формат видео: AVI
Видео: 720x400 (16:9), 24 fps, XviD 1.2.1 ~2071 kbps avg, 0.300 bit/pixel
Аудио: 48.0 kHz, AC3 Dolby Digital, 2 ch, ~192 kbps

MediaInfo

General
Format : AVI
Format/Info : Audio Video Interleave
File size : 1.37 GiB
Duration : 1h 26mn
Overall bit rate : 2 273 Kbps
Writing application : VirtualDubMod 1.5.10.3 | www.virtualdub-fr.org || (build 2550/release)
Writing library : VirtualDubMod build 2550/release
Video
ID : 0
Format : MPEG-4 Visual
Format profile : Advanced [email protected]
Format settings, BVOP : 2
Format settings, QPel : No
Format settings, GMC : No warppoints
Format settings, Matrix : Default (MPEG)
Codec ID : XVID
Codec ID/Hint : XviD
Duration : 1h 26mn
Bit rate : 2 071 Kbps
Width : 720 pixels
Height : 400 pixels
Display aspect ratio : 16:9
Frame rate : 24.000 fps
Color space : YUV
Chroma subsampling : 4:2:0
Bit depth : 8 bits
Scan type : Progressive
Compression mode : Lossy
Bits/(Pixel*Frame) : 0.300
Stream size : 1.24 GiB (91%)
Writing library : XviD 1.2.1 (UTC 2008-12-04)
Audio
ID : 1
Format : AC-3
Format/Info : Audio Coding 3
Mode extension : CM (complete main)
Format settings, Endianness : Big
Codec ID : 2000
Duration : 1h 26mn
Bit rate mode : Constant
Bit rate : 192 Kbps
Channel(s) : 2 channels
Channel positions : Front: L R
Sampling rate : 48.0 KHz
Compression mode : Lossy
Stream size : 118 MiB (8%)
Alignment : Split accross interleaves
Interleave, duration : 42 ms (1.00 video frame)
Interleave, preload duration : 500 ms

Скриншоты



Создавать темы 10-Июл-2016 20:21

[Профиль]  [ЛС] 
Показать сообщения:    
Ответить на тему

Текущее время: 19-Сен 20:29

Часовой пояс: UTC + 5



Вы не можете начинать темы
Вы не можете отвечать на сообщения
Вы не можете редактировать свои сообщения
Вы не можете удалять свои сообщения
Вы не можете голосовать в опросах
Вы не можете прикреплять файлы к сообщениям
Вы не можете скачивать файлы