Шесть раз / Shesh Peamim (Джонатан Гарфинкел / Johnathan Gurfinkel) [2012, Израиль, драма, WEB-DLRip] MVO | Официальный звук

Ответить на тему
 

kat222000 ®

Стаж: 6 лет 8 месяцев

Сообщений: 608

Симпатии: 1055

Шесть раз / Shesh Peamim«Я знаю девушку, готовую переспать с каждым» Страна: Израиль
Жанр: драма
Год выпуска: 2012
Продолжительность: 01:39:51
Перевод: Профессиональный (многоголосый закадровый) | Официальный звук
Субтитры: нет-Режиссер: Джонатан Гарфинкел / Johnathan Gurfinkel-В ролях: Сиван Леви, Эвитар Мор, Рой Ник, Нив Зилберберг, Таль Грушка, Эран Иванир, Ронит Юдкевич, Мейрав Грубер, Асаф Герц, Ницан Левратовский-Описание: Юная Гили, перейдя в новую школу и пытаясь добиться популярности среди одноклассников, начинает завязывать отношения со всеми парнями, которые обращают на нее внимание. Их встречи приобретают все более сексуальный характер, каждый раз сдвигая границы дозволенного. Мальчики жаждут близости с Гили, а она просто наслаждается вниманием к себе. В результате девушка приобретает совсем не ту репутацию, на которую рассчитывала.- -Возраст: зрителям, достигшим 18 лет-Рейтинг MPAA: лицам до 17 лет обязательно присутствие взрослого-Качество видео: WEB-DLRip
Формат видео: AVI
Видео кодек: XviD
Аудио кодек: AC3
Видео: 720x400 (16:9), 24.000 fps, XviD build 73 ~1 890 kbps avg, 0.273 bit/pixel
Аудио: 48 kHz, AC3 Dolby Digital, 2/0 (L,R), ~192.00 kbps avg (Русский | MVO)-

〤 ОтчетМедиаИнфо 〤

General
Format : AVI
Format/Info : Audio Video Interleave
File size : 1.46 GiB
Duration : 1h 39mn
Overall bit rate : 2 091 Kbps
Writing application : VirtualDubMod 1.5.10.2 (build 2540/release)
Writing library : VirtualDubMod build 2540/release
Video
ID : 0
Format : MPEG9-4 Visual
Format profile : Advanced [email protected]
Format settings, BVOP : 2
Format settings, QPel : No
Format settings, GMC : No warppoints
Format settings, Matrix : Default (MPEG)
Codec ID : XVID
Codec ID/Hint : XviD
Duration : 1h 39mn
Bit rate : 1 890 Kbps
Width : 720 pixels
Height : 400 pixels
Display aspect ratio : 16:9
Frame rate : 24.000 fps
Color space : YUV
Chroma subsampling : 4:2:0
Bit depth : 8 bits
Scan type : Progressive
Compression mode : Lossy
Bits/(Pixel*Frame) : 0.273
Stream size : 1.32 GiB (90%)
Writing library : XviD 1.2.1 (UTC 2008-12-04)
Audio
ID : 1
Format : AC-3
Format/Info : Audio Coding 3
Mode extension : CM (complete main)
Format settings, Endianness : Big
Codec ID : 2000
Duration : 1h 39mn
Bit rate mode : Constant
Bit rate : 192 Kbps
Channel(s) : 2 channels
Channel positions : Front: L R
Sampling rate : 48.0 KHz
Compression mode : Lossy
Stream size : 137 MiB (9%)
Alignment : Split accross interleaves
Interleave, duration : 42 ms (1.00 video frame)
Interleave, preload duration : 500 ms
-

〤 Скриншоты 〤



-


Последний раз редактировалось: kat222000 (2017-07-10 23:09), всего редактировалось 2 раз(а)

Создавать темы 17-Июл-2016 21:54

[Профиль]  [ЛС] 

Топик был перенесен из форума Тестовый форум в форум Арт-хаус и авторское кино
kat222000

Создавать темы 17-Июл-2016 21:54

 

cnn

Стаж: 1 год 11 месяцев

Сообщений: 29

Симпатии: 2

kat222000, без вас этот раздел мертв

Комментарий от kat222000


Спасибо!

Создавать темы 28-Июл-2016 21:28

[Профиль]  [ЛС] 

cnn

Стаж: 1 год 11 месяцев

Сообщений: 29

Симпатии: 2

kat222000, возвращайтесь с новыми релизами , я думаю все будут только рады

Создавать темы 28-Июл-2016 21:54

[Профиль]  [ЛС] 
Показать сообщения:    
Ответить на тему

Текущее время: 17-Дек 03:43

Часовой пояс: UTC + 5



Вы не можете начинать темы
Вы не можете отвечать на сообщения
Вы не можете редактировать свои сообщения
Вы не можете удалять свои сообщения
Вы не можете голосовать в опросах
Вы не можете прикреплять файлы к сообщениям
Вы не можете скачивать файлы