Зимы не будет (Илья Демичев) [2014, Россия, комедия, WEB-DLRip] | Лицензия

Ответить на тему
 

kat222000 ®

Стаж: 6 лет 6 месяцев

Сообщений: 608

Симпатии: 1055

Зимы не будет Страна: Россия
Жанр: комедия
Год выпуска: 2014
Продолжительность: 01:19:02
Перевод: Оригинал | iTunes
Субтитры: нет-Режиссер: Илья Демичев-В ролях: Ксения Раппопорт, Ингеборга Дапкунайте, Александр Самойленко, Сергей Колтаков, Елена Кондулайнен, Дмитрий Бедерин, Никита Ефремов, Анна Перелешина, Михаил Евланов, Игорь Жижикин, Николай Стоцкий, Сергей Барковский-Описание: Привычный, скучный и такой, до боли знакомый, мир главных героев вдруг начинает сходить с ума в тот миг, когда над Землей нависает угроза столкновения с гигантским метеоритом. Конец света неизбежен. Апокалипсис грядет. И тут наступает момент истины для самых потаенных желаний. Или сейчас, или никогда. Отступать уже поздно. И в этот миг, сами того не ожидая, наши герои пускаются в остервенелую пляску по самому краю бездны. Шаг влево… шаг вправо… и все — конец! Пустота. Но героев уже не остановить, потому что завтра… и так уже ничего не будет. Зимы, по крайней мере, не будет точно. Хотя… возможно, кому-то еще повезет…- -Возраст: зрителям, достигшим 18 лет-Рейтинг MPAA: лицам до 17 лет обязательно присутствие взрослого-Качество видео: WEB-DLRip
Формат видео: AVI
Видео кодек: XviD
Аудио кодек: AC3
Видео: 720x304 (2.35:1), 25.000 fps, XviD build 73 ~2 082 kbps avg, 0.380 bit/pixel
Аудио: 48 kHz, AC3 Dolby Digital, 3/2 (L,C,R,l,r) + LFE ch, ~384.00 kbps avg (Русский | Оригинал)-

〤 ОтчетМедиаИнфо 〤

General
Format : AVI
Format/Info : Audio Video Interleave
File size : 1.37 GiB
Duration : 1h 19mn
Overall bit rate : 2 476 Kbps
Writing application : VirtualDubMod 1.5.10.3 | www.virtualdub-fr.org || (build 2550/release)
Writing library : VirtualDubMod build 2550/release
Video
ID : 0
Format : MPEG-4 Visual
Format profile : Advanced [email protected]
Format settings, BVOP : 2
Format settings, QPel : No
Format settings, GMC : No warppoints
Format settings, Matrix : Default (MPEG)
Codec ID : XVID
Codec ID/Hint : XviD
Duration : 1h 19mn
Bit rate : 2 082 Kbps
Width : 720 pixels
Height : 304 pixels
Display aspect ratio : 2.35:1
Frame rate : 25.000 fps
Color space : YUV
Chroma subsampling : 4:2:0
Bit depth : 8 bits
Scan type : Progressive
Compression mode : Lossy
Bits/(Pixel*Frame) : 0.380
Stream size : 1.15 GiB (84%)
Writing library : XviD 1.2.1 (UTC 2008-12-04)
Audio
ID : 1
Format : AC-3
Format/Info : Audio Coding 3
Mode extension : CM (complete main)
Format settings, Endianness : Big
Codec ID : 2000
Duration : 1h 19mn
Bit rate mode : Constant
Bit rate : 384 Kbps
Channel(s) : 6 channels
Channel positions : Front: L C R, Side: L R, LFE
Sampling rate : 48.0 KHz
Compression mode : Lossy
Stream size : 217 MiB (16%)
Alignment : Split accross interleaves
Interleave, duration : 40 ms (1.00 video frame)
Interleave, preload duration : 500 ms
-

〤 Скриншоты 〤

- © Оформление by kat222000


Последний раз редактировалось: kat222000 (2016-07-17 22:03), всего редактировалось 1 раз

Создавать темы 17-Июл-2016 22:03

[Профиль]  [ЛС] 

Топик был перенесен из форума Тестовый форум в форум Фильмы за 2014
kat222000

Создавать темы 17-Июл-2016 22:03

 
Показать сообщения:    
Ответить на тему

Текущее время: 24-Окт 16:25

Часовой пояс: UTC + 5



Вы не можете начинать темы
Вы не можете отвечать на сообщения
Вы не можете редактировать свои сообщения
Вы не можете удалять свои сообщения
Вы не можете голосовать в опросах
Вы не можете прикреплять файлы к сообщениям
Вы не можете скачивать файлы