Холодный фронт (Роман Волобуев) [2015, Россия, Франция, триллер, мелодрама, WEB-DLRip] | iTunes

Ответить на тему
 

kat222000 ®

Стаж: 6 лет 4 месяца

Сообщений: 608

Симпатии: 1055

Холодный фронт Страна: Россия, Франция
Жанр: триллер, мелодрама
Год выпуска: 2015
Продолжительность: 01:32:22
Перевод: Оригинал | iTunes
Субтитры: нет-Режиссер: Роман Волобуев-В ролях: Светлана Устинова, Даша Чаруша, Александр Молочников, Полина Аскери, Кристоф Ле Тессон, Татьяна Абраменко, Александра Боярская-Описание: В канун Нового года происходит два вроде бы не связанных между собой события: недалеко от дома героев прибой выбрасывает на берег тушу неизвестного науке животного, а тем же вечером Илья встречает в окрестностях Машу — русскую девушку, которая якобы случайно сошла с поезда не на той станции и которой негде ночевать. С Машей явно что-то не так, но Илья и Саша, увлеченные выяснением отношений, сперва не замечают зловещих странностей в поведении незванной гостьи.- -Качество видео: WEB-DLRip
Формат видео: AVI
Видео кодек: XviD
Аудио кодек: AC3
Видео: 720x304 (2.35:1), 24.000 fps, XviD build 73 ~1 875 kbps avg, 0.357 bit/pixel
Аудио: 48 kHz, AC3 Dolby Digital, 3/2 (L,C,R,l,r) + LFE ch, ~384.00 kbps avg (Русский | Оригинал)-

〤 ОтчетМедиаИнфо 〤

General
Format : AVI
Format/Info : Audio Video Interleave
File size : 1.46 GiB
Duration : 1h 32mn
Overall bit rate : 2 269 Kbps
Writing application : VirtualDubMod 1.5.10.3 | www.virtualdub-fr.org || (build 2550/release)
Writing library : VirtualDubMod build 2550/release
Video
ID : 0
Format : MPEG-4 Visual
Format profile : Advanced [email protected]
Format settings, BVOP : 1
Format settings, QPel : No
Format settings, GMC : No warppoints
Format settings, Matrix : Custom
Codec ID : XVID
Codec ID/Hint : XviD
Duration : 1h 32mn
Bit rate : 1 875 Kbps
Width : 720 pixels
Height : 304 pixels
Display aspect ratio : 2.35:1
Frame rate : 24.000 fps
Color space : YUV
Chroma subsampling : 4:2:0
Bit depth : 8 bits
Scan type : Progressive
Compression mode : Lossy
Bits/(Pixel*Frame) : 0.357
Stream size : 1.21 GiB (83%)
Writing library : XviD 73
Audio
ID : 1
Format : AC-3
Format/Info : Audio Coding 3
Mode extension : CM (complete main)
Format settings, Endianness : Big
Codec ID : 2000
Duration : 1h 32mn
Bit rate mode : Constant
Bit rate : 384 Kbps
Channel(s) : 6 channels
Channel positions : Front: L C R, Side: L R, LFE
Sampling rate : 48.0 KHz
Compression mode : Lossy
Stream size : 254 MiB (17%)
Alignment : Split accross interleaves
Interleave, duration : 42 ms (1.00 video frame)
Interleave, preload duration : 500 ms
-

〤 Скриншоты 〤

- © Оформление by kat222000


Последний раз редактировалось: kat222000 (2016-07-17 22:11), всего редактировалось 1 раз

Создавать темы 17-Июл-2016 22:11

[Профиль]  [ЛС] 

Топик был перенесен из форума Тестовый форум в форум Фильмы за 2015
kat222000

Создавать темы 17-Июл-2016 22:11

 
Показать сообщения:    
Ответить на тему

Текущее время: 19-Авг 06:48

Часовой пояс: UTC + 5



Вы не можете начинать темы
Вы не можете отвечать на сообщения
Вы не можете редактировать свои сообщения
Вы не можете удалять свои сообщения
Вы не можете голосовать в опросах
Вы не можете прикреплять файлы к сообщениям
Вы не можете скачивать файлы