Завтрак у папы (Мария Кравченко) [2015, Россия, комедия, WEB-DLRip] | iTunes

Ответить на тему
 

kat222000 ®

Стаж: 6 лет 4 месяца

Сообщений: 608

Симпатии: 1055

Завтрак у папы Страна: Россия
Жанр: комедия
Год выпуска: 2015
Продолжительность: 01:31:52
Перевод: Оригинал | iTunes
Субтитры: нет-Режиссер: Мария Кравченко-В ролях: Юрий Колокольников, Катерина Шпица, Луиза-Габриэла Бровина, Полина Максимова, Валентин Пелка, Кристина Шаповалова, Никита Тарасов, Михаил Полицеймако-Описание: У молодого, привлекательного и самовлюбленного Саши Титова в жизни, на первый взгляд, все сложилось как нельзя лучше: он успешный креативный директор рекламного агентства и полностью удовлетворен ни к чему не обязывающими отношениями с коллегой Оксаной Тарелкиной. Но однажды утром на пороге своего пентхауса Саша встречает милую десятилетнюю девчушку Алю, которая представляется его дочкой. Ворвавшись в жизнь Саши, смышленая и любознательная Аля серьезно намерена надолго в ней обосноваться. Но готов ли Саша принять все сюрпризы, приготовленные судьбой, и в корне изменить привычную холостяцкую жизнь?- -Возраст: зрителям, достигшим 12 лет--Качество видео: WEB-DLRip
Формат видео: AVI
Видео кодек: XviD
Аудио кодек: AC3
Видео: 720x304 (2.35:1), 24.000 fps, XviD 1.2.1 ~1 737 kbps avg, 0.331 bit/pixel
Аудио: 48 kHz, AC3 Dolby Digital, 2/0 (L,R) ch, ~384.00 kbps avg (Русский | Оригинал)-

〤 ОтчетМедиаИнфо 〤

General
Format : AVI
Format/Info : Audio Video Interleave
File size : 1.37 GiB
Duration : 1h 31mn
Overall bit rate : 2 130 Kbps
Writing application : VirtualDubMod 1.5.10.2 (build 2540/release)
Writing library : VirtualDubMod build 2540/release
Video
ID : 0
Format : MPEG-4 Visual
Format profile : Advanced [email protected]
Format settings, BVOP : 2
Format settings, QPel : No
Format settings, GMC : No warppoints
Format settings, Matrix : Default (MPEG)
Codec ID : XVID
Codec ID/Hint : XviD
Duration : 1h 31mn
Bit rate : 1 737 Kbps
Width : 720 pixels
Height : 304 pixels
Display aspect ratio : 2.35:1
Frame rate : 24.000 fps
Color space : YUV
Chroma subsampling : 4:2:0
Bit depth : 8 bits
Scan type : Progressive
Compression mode : Lossy
Bits/(Pixel*Frame) : 0.331
Stream size : 1.11 GiB (82%)
Writing library : XviD 1.2.1 (UTC 2008-12-04)
Audio
ID : 1
Format : AC-3
Format/Info : Audio Coding 3
Mode extension : CM (complete main)
Format settings, Endianness : Big
Codec ID : 2000
Duration : 1h 31mn
Bit rate mode : Constant
Bit rate : 384 Kbps
Channel(s) : 2 channels
Channel positions : Front: L R
Sampling rate : 48.0 KHz
Compression mode : Lossy
Stream size : 252 MiB (18%)
Alignment : Split accross interleaves
Interleave, duration : 42 ms (1.00 video frame)
Interleave, preload duration : 500 ms
-

〤 Скриншоты 〤

© Оформление by kat222000


Последний раз редактировалось: kat222000 (2016-07-21 21:32), всего редактировалось 2 раз(а)

Создавать темы 21-Июл-2016 21:31

[Профиль]  [ЛС] 

Топик был перенесен из форума Тестовый форум в форум Фильмы за 2015
kat222000

Создавать темы 21-Июл-2016 21:31

 

B-boy DoZa

Стаж: 1 год 4 месяца

Сообщений: 1

Дайте скорости please:(

Создавать темы 04-Авг-2016 16:07

[Профиль]  [ЛС] 

iskan777

Стаж: 5 лет 3 месяца

Сообщений: 24

пожалуйста дайте скорости

Создавать темы 17-Сен-2016 14:49

[Профиль]  [ЛС] 
Показать сообщения:    
Ответить на тему

Текущее время: 23-Авг 19:01

Часовой пояс: UTC + 5



Вы не можете начинать темы
Вы не можете отвечать на сообщения
Вы не можете редактировать свои сообщения
Вы не можете удалять свои сообщения
Вы не можете голосовать в опросах
Вы не можете прикреплять файлы к сообщениям
Вы не можете скачивать файлы