Сарбджит / Sarbjit (Омунг Кумар) [2016, Индия, Драма,история,биография, DVDRip] (DVO : (Давид Петросян и Маргарита Сахно))

Ответить на тему
 

bbk ®

Стаж: 6 лет 11 месяцев

Сообщений: 435

Симпатии: 479

Сарбджит / Sarbjit
Страна: Индия
Жанр: Драма, история, биография
Год выпуска: 2016
Продолжительность: 02:12:06
Перевод: Профессиональный двухголосый (Давид Петросян и Маргарита Сахно)
Cубтитры: Русские (вшитые, неотключаемые на песни)
Реклама: Рекламы нет
Режиссер: Омунг Кумар
В ролях: Рандип Худа, Айшвария Рай, Рича Чадда, Даршан Кумар, Анкита Шривастава, Анкур Бхатия, Арбаз Али Кхан, Чаранприт Сингх
Описание: Фильм повествует о Сарбджите Сингхе, который 23 года отсидел в пакистанской тюрьме и был приговорен к смерти за шпионаж и причастность к серии взрывов в пакистанской провинции Пенджаб в 1990 году. Его семья настаивала на том, что он — всего лишь фермер, который случайно пересек границу с Пакистаном и был принят за другого человека...
 
Качество видео: DVDRip
Формат видео: AVI
Видео: Xvid, 720x304, ~1 355 Kbps
Аудио: AC3, 6 ch, 448 kbps

MediaInfo

Общее
Полное имя                               : D:\Sarbjit.2016.DVDRip.avi
Формат                                   : AVI
Формат/Информация                        : Audio Video Interleave
Размер файла                             : 1,67 Гбайт
Продолжительность                        : 2 ч. 12 м.
Общий поток                              : 1812 Кбит/сек
Программа кодирования                    : VirtualDubMod 1.5.10.3 | www.virtualdub-fr.org || (build 2550/release)
Библиотека кодирования                   : VirtualDubMod build 2550/release
Видео
Идентификатор                            : 0
Формат                                   : xvid
Идентификатор кодека                     : xvid
Продолжительность                        : 2 ч. 12 м.
Битрейт                                  : 1355 Кбит/сек
Ширина                                   : 720 пикселей
Высота                                   : 304 пикселя
Соотношение сторон                       : 2,35:1
Частота кадров                           : 25,000 кадров/сек
Бит/(Пиксели*Кадры)                      : 0.248
Размер потока                            : 1,25 Гбайт (75%)
Аудио
Идентификатор                            : 1
Формат                                   : AC-3
Формат/Информация                        : Audio Coding 3
Расширение режима                        : CM (complete main)
Параметр Endianness формата              : Big
Идентификатор кодека                     : 2000
Продолжительность                        : 2 ч. 12 м.
Вид битрейта                             : Постоянный
Битрейт                                  : 448 Кбит/сек
Каналы                                   : 6 каналов
Расположение каналов                     : Front: L C R, Side: L R, LFE
Частота                                  : 48,0 КГц
Частота кадров                           : 31,250 кадров/сек (1536 spf)
Метод сжатия                             : С потерями
Размер потока                            : 423 Мбайт (25%)
Выравнивание                             : Разделение по промежуткам
Продолжительность промежутка             : 40  мс. (1,00 видеокадр)
Время предзагрузки промежутка            : 500  мс.

Скриншот c названием фильма

Скриншоты

Создавать темы 28-Июл-2016 06:26

[Профиль]  [ЛС] 
Показать сообщения:    
Ответить на тему

Текущее время: 19-Окт 01:34

Часовой пояс: UTC + 5



Вы не можете начинать темы
Вы не можете отвечать на сообщения
Вы не можете редактировать свои сообщения
Вы не можете удалять свои сообщения
Вы не можете голосовать в опросах
Вы не можете прикреплять файлы к сообщениям
Вы не можете скачивать файлы