Да и да (Валерия Гай Германика) [2014, Россия, драма, WEB-DLRip] Оригинал

Ответить на тему
 

kat222000 ®

Стаж: 6 лет 6 месяцев

Сообщений: 608

Симпатии: 1055

Да и да«В ад с закрытыми глазами» Страна: Россия
Жанр: драма
Год выпуска: 2014
Продолжительность: 01:57:26
Перевод: Не требуется | Оригинал
Субтитры: нет-Режиссер: Валерия Гай Германика-В ролях: Агния Кузнецова, Александр Виноградов, Владимир Дубосарский, Александр Горчилин, Оксана Земляникова, Юрий Трубин, Лариса Баранова, Николай Шептулин-Описание: Паренек — начинающий современный художник, девушка — начинающая школьная учительница. Случайное сближение кладет начало горячей и короткой любви. Некрасивая случайность заставляет расстаться. Но однажды, увидев мир глазами любимого, учительница вернулась в свой прежний мир художницей и не может избавиться от нового зрения, от дара живописца: непрошеной памяти о несложившейся любви.- -Возраст: зрителям, достигшим 18 лет-Рейтинг MPAA: лицам до 17 лет обязательно присутствие взрослого-Качество видео: WEB-DLRip
Формат видео: AVI
Видео кодек: XviD
Аудио кодек: AC3
Видео: 720x384 (1.85:1), 24.000 fps, XviD 1.2.1 ~1 388 kbps avg, 0.209 bit/pixel
Аудио: 48 kHz, AC3 Dolby Digital, 3/2 (L,C,R,l,r) + LFE ch, ~384.00 kbps avg (Русский | Оригинал)-

〤 ОтчетМедиаИнфо 〤

General
Format : AVI
Format/Info : Audio Video Interleave
File size : 1.46 GiB
Duration : 1h 57mn
Overall bit rate : 1 781 Kbps
Writing application : VirtualDubMod 1.5.10.3 | www.virtualdub-fr.org || (build 2550/release)
Writing library : VirtualDubMod build 2550/release
Video
ID : 0
Format : MPEG-4 Visual
Format profile : Advanced [email protected]
Format settings, BVOP : Yes
Format settings, QPel : No
Format settings, GMC : No warppoints
Format settings, Matrix : Default (MPEG)
Codec ID : XVID
Codec ID/Hint : XviD
Duration : 1h 57mn
Bit rate : 1 388 Kbps
Width : 720 pixels
Height : 384 pixels
Display aspect ratio : 1.85:1
Frame rate : 24.000 fps
Color space : YUV
Chroma subsampling : 4:2:0
Bit depth : 8 bits
Scan type : Progressive
Compression mode : Lossy
Bits/(Pixel*Frame) : 0.209
Stream size : 1.14 GiB (78%)
Writing library : XviD 1.2.1 (UTC 2008-12-04)
Audio
ID : 1
Format : AC-3
Format/Info : Audio Coding 3
Mode extension : CM (complete main)
Format settings, Endianness : Big
Codec ID : 2000
Duration : 1h 57mn
Bit rate mode : Constant
Bit rate : 384 Kbps
Channel(s) : 6 channels
Channel positions : Front: L C R, Side: L R, LFE
Sampling rate : 48.0 KHz
Bit depth : 16 bits
Compression mode : Lossy
Stream size : 323 MiB (22%)
Alignment : Split accross interleaves
Interleave, duration : 42 ms (1.00 video frame)
Interleave, preload duration : 500 ms
-

〤 Скриншоты 〤



- © Оформление by kat222000

Создавать темы 28-Июл-2016 22:38

[Профиль]  [ЛС] 

teddi

Стаж: 1 год 6 месяцев

Сообщений: 87

Симпатии: 46

Уныло... :(((

Комментарий от kat222000


А как Вы хотели?
В ад закрытыми глазами!

Создавать темы 30-Июл-2016 16:04

[Профиль]  [ЛС] 

teddi

Стаж: 1 год 6 месяцев

Сообщений: 87

Симпатии: 46

kat222000,
Да в том-то и дело, что Аннотация не отражает сути фильма. То, что вы написали были слова главного персонажа фильма так называемого "художника".
Но я не уверен, что кто-то бы вот так безропотно стерпел то, как на только что вымытый пол, взял и тут же загадил какой-то пацанчик из тех, кто бухает под окнами. А тут, такое впечатление, что он для нее как Мессия, только где это произошло? Чем он это заслужил?
Да и девушка странная. Вряд ли я бы отдал такой учить своих детей... А вы?

Создавать темы 30-Июл-2016 23:32

[Профиль]  [ЛС] 
Показать сообщения:    
Ответить на тему

Текущее время: 19-Окт 01:34

Часовой пояс: UTC + 5



Вы не можете начинать темы
Вы не можете отвечать на сообщения
Вы не можете редактировать свои сообщения
Вы не можете удалять свои сообщения
Вы не можете голосовать в опросах
Вы не можете прикреплять файлы к сообщениям
Вы не можете скачивать файлы