Любовь втроем / 3 (Том Тыквер / Tom Tykwer) [2010, Германия, драма, мелодрама, HDRip] MVO

Ответить на тему
 

kat222000 ®

Стаж: 6 лет 4 месяца

Сообщений: 608

Симпатии: 1055

Любовь втроем / 3«Imagine the possibilities» Страна: Германия
Жанр: драма
Год выпуска: 2010
Продолжительность: 01:58:47
Перевод: Профессиональный (многоголосый закадровый) | Официальный звук
Субтитры: нет-Режиссер: Том Тыквер / Tom Tykwer-В ролях: Софи Роиз, Себастьян Шиппер, Девид Штрисов, Ангела Винклер, Винни Бёве и др.-Описание: Ханна и Симон долгие годы живут вместе и вполне счастливы. Но не все в их отношениях идет гладко — безуспешные попытки исправить ошибки молодости, отсутствие детей, романы на стороне. Вместе ими пережито слишком многое, а что впереди? Все меняется, когда в их жизни появляется Адам. Для каждого из них он становится больше, чем другом.
Любовный треугольник может оказаться не вполне традиционным.- -Возраст: зрителям, достигшим 18 лет-Рейтинг MPAA: лицам до 17 лет обязательно присутствие взрослого-Качество видео: HDRip
Формат видео: AVI
Видео кодек: XviD
Аудио кодек: AC3
Видео: 720x304 (2.35:1), 24.000 fps, XviD build 58 ~1 261 kbps avg, 0.240 bit/pixel
Аудио: 48 kHz, AC3 Dolby Digital, 3/2 (L,C,R,l,r) + LFE ch, ~384.00 kbps avg (Русский | MVO)-

〤 ОтчетМедиаИнфо 〤

General
Format : AVI
Format/Info : Audio Video Interleave
File size : 1.37 GiB
Duration : 1h 58mn
Overall bit rate : 1 654 Kbps
Writing application : VirtualDubMod 1.5.10.3 | www.virtualdub-fr.org || (build 2550/release)
Writing library : VirtualDubMod build 2550/release
Video
ID : 0
Format : MPEG-4 Visual
Format profile : Advanced [email protected]
Format settings, BVOP : Yes
Format settings, QPel : No
Format settings, GMC : No warppoints
Format settings, Matrix : Default (MPEG)
Codec ID : XVID
Codec ID/Hint : XviD
Duration : 1h 58mn
Bit rate : 1 261 Kbps
Width : 720 pixels
Height : 304 pixels
Display aspect ratio : 2.35:1
Frame rate : 24.000 fps
Color space : YUV
Chroma subsampling : 4:2:0
Bit depth : 8 bits
Scan type : Progressive
Compression mode : Lossy
Bits/(Pixel*Frame) : 0.240
Stream size : 1.05 GiB (76%)
Writing library : XviD 58
Audio
ID : 1
Format : AC-3
Format/Info : Audio Coding 3
Mode extension : CM (complete main)
Format settings, Endianness : Big
Codec ID : 2000
Duration : 1h 58mn
Bit rate mode : Constant
Bit rate : 384 Kbps
Channel(s) : 6 channels
Channel positions : Front: L C R, Side: L R, LFE
Sampling rate : 48.0 KHz
Bit depth : 16 bits
Compression mode : Lossy
Stream size : 326 MiB (23%)
Alignment : Split accross interleaves
Interleave, duration : 42 ms (1.00 video frame)
Interleave, preload duration : 500 ms
-

〤 Скриншоты 〤



- © Оформление by kat222000

Создавать темы 28-Июл-2016 23:01

[Профиль]  [ЛС] 

sancho_84

Стаж: 6 лет 7 месяцев

Сообщений: 16

Симпатии: 1

Плин...теперь трекер..чем то запахло...

Создавать темы 07-Авг-2016 20:33

[Профиль]  [ЛС] 
Показать сообщения:    
Ответить на тему

Текущее время: 16-Авг 22:37

Часовой пояс: UTC + 5



Вы не можете начинать темы
Вы не можете отвечать на сообщения
Вы не можете редактировать свои сообщения
Вы не можете удалять свои сообщения
Вы не можете голосовать в опросах
Вы не можете прикреплять файлы к сообщениям
Вы не можете скачивать файлы