Хлорка / Cloro (Ламберто Санфеличе / Lamberto Sanfelice) [2015, Италия, драма, DVDRip] VO + Sub Rus + Original Ita

Ответить на тему
 

kat222000 ®

Стаж: 6 лет 8 месяцев

Сообщений: 608

Симпатии: 1055

Хлорка / Cloro Страна: Италия
Жанр: драма
Год выпуска: 2015
Продолжительность: 01:30:59
Перевод: Любительский (двухголосый) | Павел Морозов aka PashaUp
Субтитры: Русские-Режиссер: Ламберто Санфеличе / Lamberto Sanfelice-В ролях: Сара Серайокко. Пьера Дельи Эспости, Джорджо Коланджели, Иван Франек, Анатоль Сасси, Андреа Вергони-Описание: Дженни семнадцать лет и она мечтает стать чемпионкой по синхронному плаванию. Но её беззаботная подростковая жизнь в Остии (прибрежная провинция Рима) заканчивается после внезапной смерти её матери. Она должна ухаживать за больным отцом и 9-летним братом. Дженни вынуждена переехать в загородный дом дяди, вместе с отцом и с братом, в горном поселении, в Абруццо. Но она не хочет расставаться со своей мечтой — когда-нибудь стать чемпионкой.- -Возраст: зрителям, достигшим 18 лет-Рейтинг MPAA: лицам до 17 лет обязательно присутствие взрослого-Качество видео: DVDRip
Формат видео: AVI
Видео кодек: XviD
Аудио кодек: AC3
Видео: 720x304 (2.37:1), 25 fps, XviD build 50 ~1692 kbps avg, 0.31 bit/pixe
Аудио 1: 48 kHz, AC3 Dolby Digital, 2/0 (L,R) ch, ~192 kbps (Русский | VO)
Аудио 2: 48 kHz, AC3 Dolby Digital, 3/2 (L,C,R,l,r) + LFE ch, ~448 kbps (Оригинал | ital)-

〤 ОтчетМедиаИнфо 〤

Общее
Формат : AVI
Формат/Информация : Audio Video Interleave
Размер файла : 1,49 Гбайт
Продолжительность : 1 ч. 30 м.
Общий поток : 2348 Кбит/сек
Программа кодирования : VirtualDubModRus 1.5.10.2 (build 2542/release)
Библиотека кодирования : VirtualDubMod build 2542/release
Видео
Идентификатор : 0
Формат : MPEG-4 Visual
Профиль формата : Advanced [email protected]
Параметр BVOP формата : 1
Параметр QPel формата : Нет
Параметр GMC формата : Без точки перехода
Параметр матрицы формата : Default (MPEG)
Идентификатор кодека : XVID
Идентификатор кодека/Подсказка : XviD
Продолжительность : 1 ч. 30 м.
Битрейт : 1693 Кбит/сек
Ширина : 720 пикселей
Высота : 304 пикселя
Соотношение сторон : 2,35:1
Частота кадров : 25,000 кадров/сек
Цветовое пространство : YUV
Субдискретизация насыщенности : 4:2:0
Битовая глубина : 8 бит
Тип развёртки : Прогрессивная
Метод сжатия : С потерями
Бит/(Пиксели*Кадры) : 0.309
Размер потока : 1,08 Гбайт (72%)
Библиотека кодирования : XviD 1.2.1 (UTC 2008-12-04)
Аудио #1
Идентификатор : 1
Формат : AC-3
Формат/Информация : Audio Coding 3
Расширение режима : CM (complete main)
Параметр Endianness формата : Big
Идентификатор кодека : 2000
Продолжительность : 1 ч. 30 м.
Вид битрейта : Постоянный
Битрейт : 192 Кбит/сек
Каналы : 2 канала
Расположение каналов : Front: L R
Частота : 48,0 КГц
Частота кадров : 31,250 кадров/сек (1536 spf)
Метод сжатия : С потерями
Размер потока : 125 Мбайт (8%)
Выравнивание : Разделение по промежуткам
Продолжительность промежутка : 40 мс. (1,00 видеокадр)
Время предзагрузки промежутка : 500 мс.
Аудио #2
Идентификатор : 2
Формат : AC-3
Формат/Информация : Audio Coding 3
Расширение режима : CM (complete main)
Параметр Endianness формата : Big
Идентификатор кодека : 2000
Продолжительность : 1 ч. 30 м.
Вид битрейта : Постоянный
Битрейт : 448 Кбит/сек
Каналы : 6 каналов
Расположение каналов : Front: L C R, Side: L R, LFE
Частота : 48,0 КГц
Частота кадров : 31,250 кадров/сек (1536 spf)
Метод сжатия : С потерями
Размер потока : 292 Мбайт (19%)
Выравнивание : Разделение по промежуткам
Продолжительность промежутка : 40 мс. (1,00 видеокадр)
Время предзагрузки промежутка : 500 мс.
-

〤 Скриншоты 〤

- © Оформление by kat222000

Создавать темы 30-Июл-2016 16:09

[Профиль]  [ЛС] 
Показать сообщения:    
Ответить на тему

Текущее время: 14-Дек 21:52

Часовой пояс: UTC + 5



Вы не можете начинать темы
Вы не можете отвечать на сообщения
Вы не можете редактировать свои сообщения
Вы не можете удалять свои сообщения
Вы не можете голосовать в опросах
Вы не можете прикреплять файлы к сообщениям
Вы не можете скачивать файлы