Амар, Акбар, Антони / Amar Akbar Anthony (Манмохан Десаи / Manmohan Desai) [1977, Индия, боевик, драма, комедия, семейный, DVDRip] (MVO)

Ответить на тему
 

фазилов ®

Стаж: 3 года 10 месяцев

Сообщений: 310

Симпатии: 344

АМАР, АКБАР, АНТОНИ / Amar Akbar Anthony Страна: Индия
Жанр: боевик, драма, комедия, семейный
Год выпуска: 1977
Продолжительность: 02:54:37
Перевод: Профессиональный (многоголосый закадровый)
Cубтитры: нет
Режиссер: Манмохан Десаи / Manmohan Desai

В ролях: Винод Кханна, Риши Капур, Амитабх Баччан, Ниту Сингх, Парвин Баби, Шабана Азми, Нирупа Рой, Пран, Дживан, Юсуф, Насир Хуссэйн, Камал Капур, Хелен, Надира, Ранджит
Описание: На бедную семью обрушились несчастья. Отец вынужден убегать от бандитов, мать ослепла от болезни и горя. А трое маленьких детей потерялись. У каждого из них судьба сложилась по-разному. Трое юношей встретились еще, не зная, что они братья. Старший — Амар (Винод Кханна), становится полицейским и исповедует индуизм. Средний — Энтони (Амитабх Баччан), христианин, но при этом большой грешник. Он содержит бар, проводит незаконные операции и часто влезает в драки. Младший — Акбар (Риши Капур), мусульманин и популярный певец. Все трое встречаются, сдавая кровь для жертвы аварии — их биологической матери Бхарати. В конце концов, семья соединилась, — нашлись отец, мать и все трое братьев.
Доп. информация: «Амар, Акбар, Антони» стал самым хитовым фильмом 1977 года. Согласно данным бокс-офисов фильм собрал около 73 крор рупий и долгое время входил в десятку наиболее кассовых индийских фильмов вместе с «Месть и закон», «Кто я для тебя?», «Мать Индия», «Хлеб насущный», «Великий Могол» и «Владыка судьбы»
Качество видео: DVDRip
Формат видео: AVI
Видео: 720x544 (1.32:1), 23.976 fps, XviD build 46 ~1803 kbps avg, 0.19 bit/pixel
Аудио: 48 kHz, AC3 Dolby Digital, 2/0 (L,R) ch, ~192.00 kbps avg

MediaInfo

General
Complete name : D:\Мои релизы\Амар, Акбар, Антони.avi
Format : AVI
Format/Info : Audio Video Interleave
Format profile : OpenDML
File size : 2.44 GiB
Duration : 2h 54mn
Overall bit rate : 2 002 Kbps
Writing application : VirtualDubMod 1.5.4.1 (build 2178/release)
Writing library : VirtualDubMod build 2178/release
Video
ID : 0
Format : MPEG-4 Visual
Format profile : Advanced [email protected]
Format settings, BVOP : 1
Format settings, QPel : No
Format settings, GMC : No warppoints
Format settings, Matrix : Custom
Codec ID : XVID
Codec ID/Hint : XviD
Duration : 2h 54mn
Bit rate : 1 802 Kbps
Width : 720 pixels
Height : 544 pixels
Display aspect ratio : 4:3
Frame rate : 23.976 fps
Color space : YUV
Chroma subsampling : 4:2:0
Bit depth : 8 bits
Scan type : Progressive
Compression mode : Lossy
Bits/(Pixel*Frame) : 0.192
Stream size : 2.20 GiB (90%)
Writing library : XviD 1.1.2 (UTC 2006-11-01)
Audio
ID : 1
Format : AC-3
Format/Info : Audio Coding 3
Mode extension : CM (complete main)
Format settings, Endianness : Big
Codec ID : 2000
Duration : 2h 54mn
Bit rate mode : Constant
Bit rate : 192 Kbps
Channel(s) : 2 channels
Channel positions : Front: L R
Sampling rate : 48.0 KHz
Bit depth : 16 bits
Compression mode : Lossy
Stream size : 240 MiB (10%)
Alignment : Split accross interleaves
Interleave, duration : 96 ms (2.30 video frames)
Interleave, preload duration : 96 ms
Language : Russian

Скриншот c названием фильма

Скриншоты

Создавать темы 01-Авг-2016 11:50

[Профиль]  [ЛС] 
Показать сообщения:    
Ответить на тему

Текущее время: 14-Дек 21:59

Часовой пояс: UTC + 5



Вы не можете начинать темы
Вы не можете отвечать на сообщения
Вы не можете редактировать свои сообщения
Вы не можете удалять свои сообщения
Вы не можете голосовать в опросах
Вы не можете прикреплять файлы к сообщениям
Вы не можете скачивать файлы